Жмурки (Алексей Балабанов) [2005, Россия, Триллер, комедия, криминал, BDRip 1080p]

 
Автор Сообщение

painkiller ®

Стаж: 2 года 3 месяца

Сообщений: 582



Награды: Нет

Торрент-статистика

Создавать темы 15-Авг-2014 10:18

[Цитировать]

ЖмуркиДля тех, кто выжил в 90-е Страна: Россия
Жанр: Триллер, комедия, криминал
Год выпуска: 2005
Продолжительность: 01:51:21
Перевод: Не требуется
Cубтитры: нет
Режиссер: Алексей Балабанов
В ролях: Алексей Панин, Дмитрий Дюжев, Никита Михалков, Сергей Маковецкий, Виктор Сухоруков, Дмитрий Певцов, Кирилл Пирогов, Алексей Серебряков, Андрей Мерзликин, Юрий Степанов, Григорий Сиятвинда, Анатолий Журавлев, Гарик Сукачев, Андрей Панин, Александр Баширов, Андрей Краско, Рената Литвинова, Татьяна Догилева, Сергей Глазунов, Жанна Болотова, Степан Бекетов
Описание: Жмурки — старинная русская игра: водящий, с завязанными глазами, ловит остальных играющих. К середине 1990-х правила игры изменились: выигрывает тот, кто останется в живых, сделав жмуриками остальных "играющих".
Нижний Новгород. Два мелких бандита Серега и Саймон работали на крупного бандюгана Сергея Михайловича. Только вот очередное его поручение парни завалили: он велел привезти химика, колдовавшего над созданием новой порции белого порошка, а Серега и Саймон устроили в лаборатории настоящую бойню, оставив там трупы — химика и парочки его охранников.
Сергей Михайлович сильно рассердился, но ограничился устным внушением, после чего дал парням другое поручение: съездить в адвокатскую контору и обменять чемоданчик с деньгами на чемоданчик с героином. Но и тут Сереге и Саймону не повезло: обмен-то состоялся, только на выходе из конторы их встретили Корон, Бала и Баклажан — три бандита, которых нанял старший лейтенант милиции Степан, "оборотень в погонах", мечтающий кинуть Сергея Михайловича на большие бабки…

Тип релиза: BDRip 1080p
Контейнер: MKV
Видео: AVC, 23,976 кадра/сек, 14,0 Мбит/сек 1920 х 1080 (16:9), 0.282 бит/пиксель
Аудио: DTS, 48,0 КГц, 1509 Кбит/сек, 6 каналов (Front: L C R, Side: L R, LFE)

MediaInfo

Общее
Уникальный идентификатор : 209472863674035896153580236066766272812 (0x9D97018DB6D5DF30AEDD3390B33D392C)
Полное имя : D:\torrent\Zhmurki.2005.1080p.BluRay.DTS.x264.HDCLUB-SbR.mkv
Формат : Matroska
Версия формата : Version 4 / Version 2
Размер файла : 12,0 Гбайт
Продолжительность : 1 ч. 51 м.
Общий поток : 15,5 Мбит/сек
Название фильма : Жмурки (2005) - Release for HDCLUB by SbR
Дата кодирования : UTC 2013-12-01 07:13:36
Программа кодирования : mkvmerge v6.5.0 ('Isn't she lovely') built on Oct 20 2013 12:50:05
Библиотека кодирования : libebml v1.3.0 + libmatroska v1.4.1
Attachment : Yes
Видео
Идентификатор : 1
Формат : AVC
Формат/Информация : Advanced Video Codec
Профиль формата : High@L4.1
Параметр CABAC формата : Да
Параметр ReFrames формата : 4 кадра
Идентификатор кодека : V_MPEG4/ISO/AVC
Продолжительность : 1 ч. 51 м.
Битрейт : 14,0 Мбит/сек
Ширина : 1920 пикселей
Высота : 1080 пикселей
Соотношение сторон : 16:9
Режим частоты кадров : Постоянный
Частота кадров : 23,976 кадра/сек
Цветовое пространство : YUV
Субдискретизация насыщенности : 4:2:0
Битовая глубина : 8 бит
Тип развёртки : Прогрессивная
Бит/(Пиксели*Кадры) : 0.282
Размер потока : 10,6 Гбайт (88%)
Заголовок : Release for HDCLUB
Библиотека кодирования : x264 core 140 r2377kMod 1ca7bb9
Настройки программы : cabac=1 / ref=4 / deblock=1:-2:-2 / analyse=0x3:0x113 / me=umh / subme=11 / psy=1 / fade_compensate=0.00 / psy_rd=1.00:0.00 / mixed_ref=1 / me_range=48 / chroma_me=1 / trellis=2 / 8x8dct=1 / cqm=0 / deadzone=21,11 / fast_pskip=0 / chroma_qp_offset=-2 / threads=12 / lookahead_threads=2 / sliced_threads=0 / nr=0 / decimate=1 / interlaced=0 / bluray_compat=0 / constrained_intra=0 / fgo=0 / bframes=8 / b_pyramid=2 / b_adapt=2 / b_bias=0 / direct=3 / weightb=1 / open_gop=0 / weightp=2 / keyint=250 / keyint_min=23 / scenecut=40 / intra_refresh=0 / rc_lookahead=60 / rc=2pass / mbtree=0 / bitrate=14000 / ratetol=1.0 / qcomp=0.60 / qpmin=0 / qpmax=69 / qpstep=4 / cplxblur=20.0 / qblur=0.5 / vbv_maxrate=62500 / vbv_bufsize=78125 / nal_hrd=none / filler=0 / ip_ratio=1.40 / pb_ratio=1.30 / aq=1:0.70
Язык : Russian
Default : Да
Forced : Нет
Основные цвета : BT.709
Характеристики трансфера : BT.709
Коэффициенты матрицы : BT.709
Аудио
Идентификатор : 2
Формат : DTS
Формат/Информация : Digital Theater Systems
Режим : 16
Параметр Endianness формата : Big
Идентификатор кодека : A_DTS
Продолжительность : 1 ч. 51 м.
Вид битрейта : Постоянный
Битрейт : 1509 Кбит/сек
Каналы : 6 каналов
Расположение каналов : Front: L C R, Side: L R, LFE
Частота : 48,0 КГц
Битовая глубина : 16 бит
Метод сжатия : С потерями
Размер потока : 1,17 Гбайт (10%)
Язык : Russian
Default : Да
Forced : Нет
Меню
00:00:00.000 : en:Chapter 1
00:09:53.593 : en:Chapter 2
00:21:09.268 : en:Chapter 3
00:31:51.910 : en:Chapter 4
00:39:18.356 : en:Chapter 5
00:49:49.987 : en:Chapter 6
01:00:00.597 : en:Chapter 7
01:09:01.137 : en:Chapter 8
01:20:01.796 : en:Chapter 9
01:30:21.416 : en:Chapter 10
01:39:04.939 : en:Chapter 11
01:44:45.279 : en:Chapter 12

Скриншоты





[Профиль] [ЛС]
Показать сообщения:    

Текущее время: Сегодня 20:35

Часовой пояс: GMT



Вы не можете начинать темы
Вы не можете отвечать на сообщения
Вы не можете редактировать свои сообщения
Вы не можете удалять свои сообщения
Вы не можете голосовать в опросах
Вы не можете прикреплять файлы к сообщениям
Вы не можете скачивать файлы