Жмурки (Алексей Балабанов) [2005, Россия, Триллер, комедия, криминал, BDRip 720p]

 
Автор Сообщение

painkiller ®

Стаж: 2 года 3 месяца

Сообщений: 582



Награды: Нет

Торрент-статистика

Создавать темы 15-Авг-2014 01:10

[Цитировать]

ЖмуркиДля тех, кто выжил в 90-е Страна: Россия
Жанр: Триллер, комедия, криминал
Год выпуска: 2005
Продолжительность: 01:51:21
Перевод: Не требуется
Cубтитры: нет
Режиссер: Алексей Балабанов
В ролях: Алексей Панин, Дмитрий Дюжев, Никита Михалков, Сергей Маковецкий, Виктор Сухоруков, Дмитрий Певцов, Кирилл Пирогов, Алексей Серебряков, Андрей Мерзликин, Юрий Степанов, Григорий Сиятвинда, Анатолий Журавлев, Гарик Сукачев, Андрей Панин, Александр Баширов, Андрей Краско, Рената Литвинова, Татьяна Догилева, Сергей Глазунов, Жанна Болотова, Степан Бекетов
Описание: Жмурки — старинная русская игра: водящий, с завязанными глазами, ловит остальных играющих. К середине 1990-х правила игры изменились: выигрывает тот, кто останется в живых, сделав жмуриками остальных "играющих".
Нижний Новгород. Два мелких бандита Серега и Саймон работали на крупного бандюгана Сергея Михайловича. Только вот очередное его поручение парни завалили: он велел привезти химика, колдовавшего над созданием новой порции белого порошка, а Серега и Саймон устроили в лаборатории настоящую бойню, оставив там трупы — химика и парочки его охранников.
Сергей Михайлович сильно рассердился, но ограничился устным внушением, после чего дал парням другое поручение: съездить в адвокатскую контору и обменять чемоданчик с деньгами на чемоданчик с героином. Но и тут Сереге и Саймону не повезло: обмен-то состоялся, только на выходе из конторы их встретили Корон, Бала и Баклажан — три бандита, которых нанял старший лейтенант милиции Степан, "оборотень в погонах", мечтающий кинуть Сергея Михайловича на большие бабки…

Тип релиза: BDRip 720p
Контейнер: MKV
Видео: AVC, 23,976 кадра/сек, 5259 Кбит/сек 1280 х 720 (16:9), 0.238 бит/пиксель
Аудио: DTS, 48,0 КГц, 1509 Кбит/сек, 6 каналов (Front: L C R, Side: L R, LFE)

MediaInfo

Общее
Уникальный идентификатор : 197839071059828542193138303454158787968 (0x94D66B4AF30EF190A490204CBD7C1580)
Полное имя : D:\torrent\Zhmurki.2002.BDRip.720p.mkv
Формат : Matroska
Версия формата : Version 4 / Version 2
Размер файла : 5,21 Гбайт
Продолжительность : 1 ч. 51 м.
Общий поток : 6691 Кбит/сек
Название фильма : Жмурки (2005) - Release for HDCLUB by SbR
Дата кодирования : UTC 2013-12-06 08:55:23
Программа кодирования : mkvmerge v6.2.0 ('Promised Land') built on Apr 28 2013 12:22:01
Библиотека кодирования : libebml v1.3.0 + libmatroska v1.4.0
Attachment : Yes
Видео
Идентификатор : 1
Формат : AVC
Формат/Информация : Advanced Video Codec
Профиль формата : High@L4.1
Параметр CABAC формата : Да
Параметр ReFrames формата : 9 кадров
Идентификатор кодека : V_MPEG4/ISO/AVC
Продолжительность : 1 ч. 51 м.
Битрейт : 5259 Кбит/сек
Ширина : 1280 пикселей
Высота : 720 пикселей
Соотношение сторон : 16:9
Режим частоты кадров : Постоянный
Частота кадров : 23,976 кадра/сек
Цветовое пространство : YUV
Субдискретизация насыщенности : 4:2:0
Битовая глубина : 8 бит
Тип развёртки : Прогрессивная
Бит/(Пиксели*Кадры) : 0.238
Размер потока : 3,93 Гбайт (75%)
Библиотека кодирования : x264 core 68 r1181M 49bf767
Настройки программы : cabac=1 / ref=9 / deblock=1:-3:-3 / analyse=0x3:0x113 / me=umh / subme=9 / psy_rd=1.0:0.0 / mixed_ref=1 / me_range=32 / chroma_me=1 / trellis=2 / 8x8dct=1 / cqm=0 / deadzone=21,11 / chroma_qp_offset=-2 / threads=12 / nr=0 / decimate=0 / mbaff=0 / bframes=5 / b_pyramid=0 / b_adapt=2 / b_bias=0 / direct=3 / wpredb=1 / keyint=250 / keyint_min=25 / scenecut=40 / rc=2pass / bitrate=5259 / ratetol=1.0 / qcomp=0.60 / qpmin=10 / qpmax=51 / qpstep=4 / cplxblur=20.0 / qblur=0.5 / ip_ratio=1.40 / pb_ratio=1.30 / aq=1:0.80
Язык : English
Default : Да
Forced : Нет
Аудио
Идентификатор : 2
Формат : DTS
Формат/Информация : Digital Theater Systems
Режим : 16
Параметр Endianness формата : Big
Идентификатор кодека : A_DTS
Продолжительность : 1 ч. 51 м.
Вид битрейта : Постоянный
Битрейт : 1509 Кбит/сек
Каналы : 6 каналов
Расположение каналов : Front: L C R, Side: L R, LFE
Частота : 48,0 КГц
Битовая глубина : 16 бит
Метод сжатия : С потерями
Размер потока : 1,17 Гбайт (23%)
Язык : Russian
Default : Да
Forced : Нет

Скриншоты

[Профиль] [ЛС]
Показать сообщения:    

Текущее время: Сегодня 00:19

Часовой пояс: GMT



Вы не можете начинать темы
Вы не можете отвечать на сообщения
Вы не можете редактировать свои сообщения
Вы не можете удалять свои сообщения
Вы не можете голосовать в опросах
Вы не можете прикреплять файлы к сообщениям
Вы не можете скачивать файлы