Жила-была одна баба (Андрей Смирнов) [2011, драма, история, Blu-ray 1080p]

 
Автор Сообщение

painkiller ®

Стаж: 2 года 3 месяца

Сообщений: 582



Награды: Нет

Торрент-статистика

Создавать темы 14-Авг-2014 09:22

[Цитировать]

Жила-была одна баба«Те, кто не помнят прошлого, обречены переживать его вновь...» Год выпуска: 2011
Страна: Россия
Студии: Рекун-синема
Жанр: драма, история
Продолжительность: 02:35:39
Перевод: Не требуется
Субтитры: нет
Режиссер: Андрей Смирнов
В ролях: Дарья Екамасова, Нина Русланова, Всеволод Шиловский, Евдокия Германова, Юрий Шевчук, Алексей Серебряков, Алексей Алексеев, Михаил Евланов, Егор Клейменов, Мария Клюквина...
Описание: Псевдоисторический фильм от Андрея Смирнова. История частной жизни одной женщины и четверых ее мужчин. Главная героиня — неграмотная крестьянка, и действие фильма начинается с ее свадьбы в 1909 году, когда девушку из нищей семьи взяли в богатую, а кончается в 1921 году Антоновским восстанием...- -Видео: MPEG-4 AVC Video 14907 kbps 1080p / 24 fps / 16:9 / High Profile 4.1
Аудио: DTS-HD Master Audio Russian 1981 kbps 5.1 / 48 kHz / 1981 kbps / 16-bit (DTS Core: 5.1 / 48 kHz / 1509 kbps / 16-bit)
Меню: Статичное
Дополнительно: Фильм режиссера Ирины Бессарабовой "Под говор пьяных мужичков", Фотогалерея, Анонсы новых фильмов.
Тип релиза: Blu-Ray
Контейнер: BDAV

BDInfo

Disc Title: Zhila.bila.odna.baba.2011.O.Blu-ray
Disc Size: 24 084 324 564 bytes
Protection: AACS
BD-Java: No
BDInfo: 0.5.6
Notes:
BDINFO HOME:
Cinema Squid
http://www.cinemasquid.com/blu-ray/tools/bdinfo
INCLUDES FORUMS REPORT FOR:
AVS Forum Blu-ray Audio and Video Specifications Thread
http://www.avsforum.com/avs-vb/showthread.php?t=1155731
********************
PLAYLIST: 00002.MPLS
********************
Total   Video
Title                                                           Codec   Length  Movie Size      Disc Size       Bitrate Bitrate Main Audio Track                          Secondary Audio Track
-----                                                           ------  ------- --------------  --------------  ------- ------- ------------------                        ---------------------
00002.MPLS                                                      AVC     2:35:39 20 938 745 856  24 084 324 564  17,93   14,91   DTS-HD Master 5.1 1981Kbps (48kHz/16-bit)
DISC INFO:
Disc Title:     ZHILA_BILA_ODNA_BABA
Disc Size:      24 084 324 564 bytes
Protection:     AACS
BD-Java:        No
BDInfo:         0.5.6
PLAYLIST REPORT:
Name:                   00002.MPLS
Length:                 2:35:39 (h:m:s)
Size:                   20 938 745 856 bytes
Total Bitrate:          17,93 Mbps
VIDEO:
Codec                   Bitrate             Description
-----                   -------             -----------
MPEG-4 AVC Video        14907 kbps          1080p / 24 fps / 16:9 / High Profile 4.1
AUDIO:
Codec                           Language        Bitrate         Description
-----                           --------        -------         -----------
DTS-HD Master Audio             Russian         1981 kbps       5.1 / 48 kHz / 1981 kbps / 16-bit (DTS Core: 5.1 / 48 kHz / 1509 kbps / 16-bit)
FILES:
Name            Time In         Length          Size            Total Bitrate
----            -------         ------          ----            -------------
00005.M2TS      0:00:00.000     1:09:40.250     9 430 272 000   18 047
00013.M2TS      1:09:40.250     1:25:59.708     11 508 473 856  17 844
CHAPTERS:
Number          Time In         Length          Avg Video Rate  Max 1-Sec Rate  Max 1-Sec Time  Max 5-Sec Rate  Max 5-Sec Time  Max 10Sec Rate  Max 10Sec Time  Avg Frame Size  Max Frame Size  Max Frame Time
------          -------         ------          --------------  --------------  --------------  --------------  --------------  --------------  --------------  --------------  --------------  --------------
1               0:00:00.000     0:14:49.625     15 011 kbps     34 371 kbps     00:00:27.624    30 495 kbps     00:00:24.375    29 526 kbps     00:00:23.874    78 179 bytes    449 658 bytes   00:04:24.666
2               0:14:49.625     0:06:09.708     15 011 kbps     26 769 kbps     00:18:29.583    18 756 kbps     00:18:27.583    17 006 kbps     00:18:26.833    78 183 bytes    349 444 bytes   00:15:02.250
3               0:20:59.333     0:11:49.541     14 988 kbps     21 529 kbps     00:28:22.749    17 428 kbps     00:28:19.541    16 390 kbps     00:28:19.791    78 062 bytes    434 054 bytes   00:23:14.666
4               0:32:48.875     0:10:02.541     15 007 kbps     22 543 kbps     00:34:34.625    17 085 kbps     00:36:23.166    16 120 kbps     00:38:07.041    78 159 bytes    473 603 bytes   00:38:34.125
5               0:42:51.416     0:11:26.333     15 010 kbps     25 417 kbps     00:49:37.875    18 624 kbps     00:49:37.625    17 110 kbps     00:49:37.708    78 175 bytes    488 476 bytes   00:45:38.833
6               0:54:17.750     0:04:44.125     14 999 kbps     20 093 kbps     00:58:33.791    16 651 kbps     00:58:31.083    16 066 kbps     00:58:29.083    78 119 bytes    387 653 bytes   00:58:33.833
7               0:59:01.875     0:10:37.708     14 887 kbps     20 564 kbps     01:05:36.083    17 159 kbps     01:05:57.833    16 475 kbps     01:05:36.125    77 537 bytes    420 285 bytes   01:07:55.583
8               1:09:39.583     0:09:22.041     14 992 kbps     32 400 kbps     01:09:53.625    30 901 kbps     01:09:51.083    29 935 kbps     01:09:49.958    78 083 bytes    339 816 bytes   01:18:13.458
9               1:19:01.625     0:08:44.625     15 011 kbps     19 590 kbps     01:23:13.625    16 278 kbps     01:23:12.666    15 730 kbps     01:23:06.916    78 181 bytes    263 758 bytes   01:20:20.541
10              1:27:46.250     0:12:54.000     14 990 kbps     25 284 kbps     01:34:42.583    20 251 kbps     01:34:39.958    17 745 kbps     01:34:35.249    78 071 bytes    491 319 bytes   01:29:24.541
11              1:40:40.250     0:12:12.333     15 011 kbps     20 118 kbps     01:41:11.874    16 428 kbps     01:43:45.958    15 884 kbps     01:42:57.874    78 181 bytes    345 865 bytes   01:42:34.666
12              1:52:52.583     0:06:03.250     15 005 kbps     24 705 kbps     01:58:39.291    17 909 kbps     01:55:36.750    16 652 kbps     01:55:34.416    78 152 bytes    478 336 bytes   01:55:36.958
13              1:58:55.833     0:13:05.999     14 997 kbps     25 575 kbps     02:12:00.791    18 990 kbps     02:01:26.416    17 187 kbps     02:01:25.874    78 109 bytes    434 959 bytes   01:59:06.041
14              2:12:01.833     0:14:07.708     14 994 kbps     26 187 kbps     02:13:39.375    19 898 kbps     02:13:39.125    17 285 kbps     02:13:34.708    78 093 bytes    406 594 bytes   02:13:39.416
15              2:26:09.541     0:06:04.208     14 588 kbps     39 245 kbps     02:29:10.666    34 820 kbps     02:29:08.833    26 931 kbps     02:29:03.791    75 977 bytes    328 161 bytes   02:27:08.625
16              2:32:13.750     0:03:26.208     11 820 kbps     29 896 kbps     02:33:15.791    27 659 kbps     02:33:14.333    25 380 kbps     02:33:11.958    61 577 bytes    292 484 bytes   02:33:16.000
STREAM DIAGNOSTICS:
File            PID             Type            Codec           Language                Seconds                 Bitrate                 Bytes           Packets
----            ---             ----            -----           --------                --------------          --------------          -------------   -----
00005.M2TS      4113 (0x1011)   0x1B            AVC                                     4180,083                14 985                  7 829 680 899   42 611 115
00005.M2TS      4352 (0x1100)   0x86            DTS-HD MA       rus (Russian)           4180,083                2 011                   1 050 685 172   6 364 795
00013.M2TS      4113 (0x1011)   0x1B            AVC                                     5159,625                14 845                  9 574 348 145   52 106 639
00013.M2TS      4352 (0x1100)   0x86            DTS-HD MA       rus (Russian)           5159,625                1 956                   1 261 661 144   7 660 454
QUICK SUMMARY:
Disc Title: ZHILA_BILA_ODNA_BABA
Disc Size: 24 084 324 564 bytes
Protection: AACS
BD-Java: No
Playlist: 00002.MPLS
Size: 20 938 745 856 bytes
Length: 2:35:39
Total Bitrate: 17,93 Mbps
Video: MPEG-4 AVC Video / 14907 kbps / 1080p / 24 fps / 16:9 / High Profile 4.1
Audio: Russian / DTS-HD Master Audio / 5.1 / 48 kHz / 1981 kbps / 16-bit (DTS Core: 5.1 / 48 kHz / 1509 kbps / 16-bit)
********************
PLAYLIST: 00003.MPLS
********************
Total   Video
Title                                                           Codec   Length  Movie Size      Disc Size       Bitrate Bitrate Main Audio Track                          Secondary Audio Track
-----                                                           ------  ------- --------------  --------------  ------- ------- ------------------                        ---------------------
00003.MPLS                                                      MPEG-2  0:52:03 1 967 726 592   24 084 324 564  5,04    2,99    LPCM 2.0 1536Kbps (48kHz/16-bit)
DISC INFO:
Disc Title:     ZHILA_BILA_ODNA_BABA
Disc Size:      24 084 324 564 bytes
Protection:     AACS
BD-Java:        No
BDInfo:         0.5.6
PLAYLIST REPORT:
Name:                   00003.MPLS
Length:                 0:52:03 (h:m:s)
Size:                   1 967 726 592 bytes
Total Bitrate:          5,04 Mbps
VIDEO:
Codec                   Bitrate             Description
-----                   -------             -----------
MPEG-2 Video            2993 kbps           576i / 25 fps / 4:3
AUDIO:
Codec                           Language        Bitrate         Description
-----                           --------        -------         -----------
LPCM Audio                      Russian         1536 kbps       2.0 / 48 kHz / 1536 kbps / 16-bit
FILES:
Name            Time In         Length          Size            Total Bitrate
----            -------         ------          ----            -------------
00006.M2TS      0:00:00.000     0:52:03.040     1 967 726 592   5 041
CHAPTERS:
Number          Time In         Length          Avg Video Rate  Max 1-Sec Rate  Max 1-Sec Time  Max 5-Sec Rate  Max 5-Sec Time  Max 10Sec Rate  Max 10Sec Time  Avg Frame Size  Max Frame Size  Max Frame Time
------          -------         ------          --------------  --------------  --------------  --------------  --------------  --------------  --------------  --------------  --------------  --------------
1               0:00:00.000     0:51:58.560     2 994 kbps      6 818 kbps      00:00:09.960    4 915 kbps      00:00:09.320    4 220 kbps      00:01:48.920    14 970 bytes    129 553 bytes   00:27:32.080
2               0:51:58.560     0:00:04.480     2 413 kbps      2 947 kbps      00:52:00.360    0 kbps          00:00:00.000    0 kbps          00:00:00.000    12 176 bytes    38 679 bytes    00:52:00.880
STREAM DIAGNOSTICS:
File            PID             Type            Codec           Language                Seconds                 Bitrate                 Bytes           Packets
----            ---             ----            -----           --------                --------------          --------------          -------------   -----
00006.M2TS      4113 (0x1011)   0x02            MPEG-2                                  3122,880                2 993                   1 168 503 061   6 396 284
00006.M2TS      4352 (0x1100)   0x80            LPCM            rus (Russian)           3122,880                1 542                   602 122 112     3 747 648
QUICK SUMMARY:
Disc Title: ZHILA_BILA_ODNA_BABA
Disc Size: 24 084 324 564 bytes
Protection: AACS
BD-Java: No
Playlist: 00003.MPLS
Size: 1 967 726 592 bytes
Length: 0:52:03
Total Bitrate: 5,04 Mbps
Video: MPEG-2 Video / 2993 kbps / 576i / 25 fps / 4:3
Audio: Russian / LPCM Audio / 2.0 / 48 kHz / 1536 kbps / 16-bit
********************
PLAYLIST: 00008.MPLS
********************
Total   Video
Title                                                           Codec   Length  Movie Size      Disc Size       Bitrate Bitrate Main Audio Track                          Secondary Audio Track
-----                                                           ------  ------- --------------  --------------  ------- ------- ------------------                        ---------------------
00008.MPLS                                                      MPEG-2  0:02:22 139 155 456     24 084 324 564  7,81    5,64    LPCM 2.0 1536Kbps (48kHz/16-bit)
DISC INFO:
Disc Title:     ZHILA_BILA_ODNA_BABA
Disc Size:      24 084 324 564 bytes
Protection:     AACS
BD-Java:        No
BDInfo:         0.5.6
PLAYLIST REPORT:
Name:                   00008.MPLS
Length:                 0:02:22 (h:m:s)
Size:                   139 155 456 bytes
Total Bitrate:          7,81 Mbps
VIDEO:
Codec                   Bitrate             Description
-----                   -------             -----------
MPEG-2 Video            5644 kbps           576i / 25 fps / 16:9
AUDIO:
Codec                           Language        Bitrate         Description
-----                           --------        -------         -----------
LPCM Audio                      Russian         1536 kbps       2.0 / 48 kHz / 1536 kbps / 16-bit
FILES:
Name            Time In         Length          Size            Total Bitrate
----            -------         ------          ----            -------------
00011.M2TS      0:00:00.000     0:02:22.600     139 155 456     7 807
CHAPTERS:
Number          Time In         Length          Avg Video Rate  Max 1-Sec Rate  Max 1-Sec Time  Max 5-Sec Rate  Max 5-Sec Time  Max 10Sec Rate  Max 10Sec Time  Avg Frame Size  Max Frame Size  Max Frame Time
------          -------         ------          --------------  --------------  --------------  --------------  --------------  --------------  --------------  --------------  --------------  --------------
1               0:00:00.000     0:02:22.600     5 644 kbps      10 210 kbps     00:01:46.440    7 842 kbps      00:00:50.279    7 284 kbps      00:01:37.320    28 218 bytes    159 879 bytes   00:01:46.480
STREAM DIAGNOSTICS:
File            PID             Type            Codec           Language                Seconds                 Bitrate                 Bytes           Packets
----            ---             ----            -----           --------                --------------          --------------          -------------   -----
00011.M2TS      4113 (0x1011)   0x02            MPEG-2                                  142,440                 5 650                   100 597 843     548 792
00011.M2TS      4352 (0x1100)   0x80            LPCM            rus (Russian)           142,440                 1 545                   27 504 848      171 192
QUICK SUMMARY:
Disc Title: ZHILA_BILA_ODNA_BABA
Disc Size: 24 084 324 564 bytes
Protection: AACS
BD-Java: No
Playlist: 00008.MPLS
Size: 139 155 456 bytes
Length: 0:02:22
Total Bitrate: 7,81 Mbps
Video: MPEG-2 Video / 5644 kbps / 576i / 25 fps / 16:9
Audio: Russian / LPCM Audio / 2.0 / 48 kHz / 1536 kbps / 16-bit
********************
PLAYLIST: 00006.MPLS
********************
Total   Video
Title                                                           Codec   Length  Movie Size      Disc Size       Bitrate Bitrate Main Audio Track                          Secondary Audio Track
-----                                                           ------  ------- --------------  --------------  ------- ------- ------------------                        ---------------------
00006.MPLS                                                      AVC     0:02:19 262 852 608     24 084 324 564  15,04   13,86   DD AC3 2.0 448Kbps
DISC INFO:
Disc Title:     ZHILA_BILA_ODNA_BABA
Disc Size:      24 084 324 564 bytes
Protection:     AACS
BD-Java:        No
BDInfo:         0.5.6
PLAYLIST REPORT:
Name:                   00006.MPLS
Length:                 0:02:19 (h:m:s)
Size:                   262 852 608 bytes
Total Bitrate:          15,04 Mbps
VIDEO:
Codec                   Bitrate             Description
-----                   -------             -----------
MPEG-4 AVC Video        13859 kbps          1080i / 25 fps / 16:9 / Main Profile 4.1
AUDIO:
Codec                           Language        Bitrate         Description
-----                           --------        -------         -----------
Dolby Digital Audio             Russian         448 kbps        2.0 / 48 kHz / 448 kbps / DN -4dB
FILES:
Name            Time In         Length          Size            Total Bitrate
----            -------         ------          ----            -------------
00009.M2TS      0:00:00.000     0:02:19.840     262 852 608     15 037
CHAPTERS:
Number          Time In         Length          Avg Video Rate  Max 1-Sec Rate  Max 1-Sec Time  Max 5-Sec Rate  Max 5-Sec Time  Max 10Sec Rate  Max 10Sec Time  Avg Frame Size  Max Frame Size  Max Frame Time
------          -------         ------          --------------  --------------  --------------  --------------  --------------  --------------  --------------  --------------  --------------  --------------
1               0:00:00.000     0:02:19.840     13 859 kbps     33 811 kbps     00:01:46.799    21 559 kbps     00:01:07.840    18 467 kbps     00:01:05.400    69 296 bytes    499 410 bytes   00:01:41.759
STREAM DIAGNOSTICS:
File            PID             Type            Codec           Language                Seconds                 Bitrate                 Bytes           Packets
----            ---             ----            -----           --------                --------------          --------------          -------------   -----
00009.M2TS      4113 (0x1011)   0x1B            AVC                                     139,640                 13 879                  242 260 011     1 320 608
00009.M2TS      4352 (0x1100)   0x81            AC3             rus (Russian)           139,640                 449                     7 831 040       43 700
QUICK SUMMARY:
Disc Title: ZHILA_BILA_ODNA_BABA
Disc Size: 24 084 324 564 bytes
Protection: AACS
BD-Java: No
Playlist: 00006.MPLS
Size: 262 852 608 bytes
Length: 0:02:19
Total Bitrate: 15,04 Mbps
Video: MPEG-4 AVC Video / 13859 kbps / 1080i / 25 fps / 16:9 / Main Profile 4.1
Audio: Russian / Dolby Digital Audio / 2.0 / 48 kHz / 448 kbps / DN -4dB
********************
PLAYLIST: 00005.MPLS
********************
Total   Video
Title                                                           Codec   Length  Movie Size      Disc Size       Bitrate Bitrate Main Audio Track                          Secondary Audio Track
-----                                                           ------  ------- --------------  --------------  ------- ------- ------------------                        ---------------------
00005.MPLS                                                      AVC     0:01:39 178 335 744     24 084 324 564  14,41   13,25   DD AC3 5.1 448Kbps
DISC INFO:
Disc Title:     ZHILA_BILA_ODNA_BABA
Disc Size:      24 084 324 564 bytes
Protection:     AACS
BD-Java:        No
BDInfo:         0.5.6
PLAYLIST REPORT:
Name:                   00005.MPLS
Length:                 0:01:39 (h:m:s)
Size:                   178 335 744 bytes
Total Bitrate:          14,41 Mbps
VIDEO:
Codec                   Bitrate             Description
-----                   -------             -----------
MPEG-4 AVC Video        13254 kbps          1080i / 25 fps / 16:9 / Main Profile 4.1
AUDIO:
Codec                           Language        Bitrate         Description
-----                           --------        -------         -----------
Dolby Digital Audio             Russian         448 kbps        5.1 / 48 kHz / 448 kbps / DN -4dB
FILES:
Name            Time In         Length          Size            Total Bitrate
----            -------         ------          ----            -------------
00008.M2TS      0:00:00.000     0:01:39.039     178 335 744     14 405
CHAPTERS:
Number          Time In         Length          Avg Video Rate  Max 1-Sec Rate  Max 1-Sec Time  Max 5-Sec Rate  Max 5-Sec Time  Max 10Sec Rate  Max 10Sec Time  Avg Frame Size  Max Frame Size  Max Frame Time
------          -------         ------          --------------  --------------  --------------  --------------  --------------  --------------  --------------  --------------  --------------  --------------
1               0:00:00.000     0:01:39.039     13 254 kbps     38 833 kbps     00:00:42.960    20 157 kbps     00:00:49.200    18 719 kbps     00:00:42.960    66 272 bytes    339 077 bytes   00:00:43.039
STREAM DIAGNOSTICS:
File            PID             Type            Codec           Language                Seconds                 Bitrate                 Bytes           Packets
----            ---             ----            -----           --------                --------------          --------------          -------------   -----
00008.M2TS      4113 (0x1011)   0x1B            AVC                                     98,840                  13 281                  164 089 788     894 515
00008.M2TS      4352 (0x1100)   0x81            AC3             rus (Russian)           98,840                  449                     5 546 240       30 950
QUICK SUMMARY:
Disc Title: ZHILA_BILA_ODNA_BABA
Disc Size: 24 084 324 564 bytes
Protection: AACS
BD-Java: No
Playlist: 00005.MPLS
Size: 178 335 744 bytes
Length: 0:01:39
Total Bitrate: 14,41 Mbps
Video: MPEG-4 AVC Video / 13254 kbps / 1080i / 25 fps / 16:9 / Main Profile 4.1
Audio: Russian / Dolby Digital Audio / 5.1 / 48 kHz / 448 kbps / DN -4dB
********************
PLAYLIST: 00007.MPLS
********************
Total   Video
Title                                                           Codec   Length  Movie Size      Disc Size       Bitrate Bitrate Main Audio Track                          Secondary Audio Track
-----                                                           ------  ------- --------------  --------------  ------- ------- ------------------                        ---------------------
00007.MPLS                                                      AVC     0:01:35 194 844 672     24 084 324 564  16,34   15,11   DD AC3 5.1 448Kbps
DISC INFO:
Disc Title:     ZHILA_BILA_ODNA_BABA
Disc Size:      24 084 324 564 bytes
Protection:     AACS
BD-Java:        No
BDInfo:         0.5.6
PLAYLIST REPORT:
Name:                   00007.MPLS
Length:                 0:01:35 (h:m:s)
Size:                   194 844 672 bytes
Total Bitrate:          16,34 Mbps
VIDEO:
Codec                   Bitrate             Description
-----                   -------             -----------
MPEG-4 AVC Video        15107 kbps          1080i / 25 fps / 16:9 / High Profile 4.1
AUDIO:
Codec                           Language        Bitrate         Description
-----                           --------        -------         -----------
Dolby Digital Audio             Russian         448 kbps        5.1 / 48 kHz / 448 kbps / DN -4dB
FILES:
Name            Time In         Length          Size            Total Bitrate
----            -------         ------          ----            -------------
00010.M2TS      0:00:00.000     0:01:35.399     194 844 672     16 339
CHAPTERS:
Number          Time In         Length          Avg Video Rate  Max 1-Sec Rate  Max 1-Sec Time  Max 5-Sec Rate  Max 5-Sec Time  Max 10Sec Rate  Max 10Sec Time  Avg Frame Size  Max Frame Size  Max Frame Time
------          -------         ------          --------------  --------------  --------------  --------------  --------------  --------------  --------------  --------------  --------------  --------------
1               0:00:00.000     0:01:35.399     15 107 kbps     40 293 kbps     00:00:09.840    22 990 kbps     00:00:56.720    22 028 kbps     00:00:52.680    75 537 bytes    356 363 bytes   00:00:45.039
STREAM DIAGNOSTICS:
File            PID             Type            Codec           Language                Seconds                 Bitrate                 Bytes           Packets
----            ---             ----            -----           --------                --------------          --------------          -------------   -----
00010.M2TS      4113 (0x1011)   0x1B            AVC                                     95,240                  15 133                  180 156 456     981 753
00010.M2TS      4352 (0x1100)   0x81            AC3             rus (Russian)           95,240                  449                     5 343 744       29 820
QUICK SUMMARY:
Disc Title: ZHILA_BILA_ODNA_BABA
Disc Size: 24 084 324 564 bytes
Protection: AACS
BD-Java: No
Playlist: 00007.MPLS
Size: 194 844 672 bytes
Length: 0:01:35
Total Bitrate: 16,34 Mbps
Video: MPEG-4 AVC Video / 15107 kbps / 1080i / 25 fps / 16:9 / High Profile 4.1
Audio: Russian / Dolby Digital Audio / 5.1 / 48 kHz / 448 kbps / DN -4dB
********************
PLAYLIST: 00004.MPLS
********************
Total   Video
Title                                                           Codec   Length  Movie Size      Disc Size       Bitrate Bitrate Main Audio Track                          Secondary Audio Track
-----                                                           ------  ------- --------------  --------------  ------- ------- ------------------                        ---------------------
00004.MPLS                                                      AVC     0:01:01 118 935 552     24 084 324 564  15,48   14,74
DISC INFO:
Disc Title:     ZHILA_BILA_ODNA_BABA
Disc Size:      24 084 324 564 bytes
Protection:     AACS
BD-Java:        No
BDInfo:         0.5.6
PLAYLIST REPORT:
Name:                   00004.MPLS
Length:                 0:01:01 (h:m:s)
Size:                   118 935 552 bytes
Total Bitrate:          15,48 Mbps
VIDEO:
Codec                   Bitrate             Description
-----                   -------             -----------
MPEG-4 AVC Video        14742 kbps          1080i / 25 fps / 16:9 / Main Profile 4.1
FILES:
Name            Time In         Length          Size            Total Bitrate
----            -------         ------          ----            -------------
00007.M2TS      0:00:00.000     0:01:01.480     118 935 552     15 476
CHAPTERS:
Number          Time In         Length          Avg Video Rate  Max 1-Sec Rate  Max 1-Sec Time  Max 5-Sec Rate  Max 5-Sec Time  Max 10Sec Rate  Max 10Sec Time  Avg Frame Size  Max Frame Size  Max Frame Time
------          -------         ------          --------------  --------------  --------------  --------------  --------------  --------------  --------------  --------------  --------------  --------------
1               0:00:00.000     0:01:01.480     14 742 kbps     31 638 kbps     00:00:03.080    19 684 kbps     00:00:16.639    17 488 kbps     00:00:16.519    73 709 bytes    295 173 bytes   00:00:17.279
STREAM DIAGNOSTICS:
File            PID             Type            Codec           Language                Seconds                 Bitrate                 Bytes           Packets
----            ---             ----            -----           --------                --------------          --------------          -------------   -----
00007.M2TS      4113 (0x1011)   0x1B            AVC                                     61,360                  14 771                  113 290 991     617 368
QUICK SUMMARY:
Disc Title: ZHILA_BILA_ODNA_BABA
Disc Size: 24 084 324 564 bytes
Protection: AACS
BD-Java: No
Playlist: 00004.MPLS
Size: 118 935 552 bytes
Length: 0:01:01
Total Bitrate: 15,48 Mbps
Video: MPEG-4 AVC Video / 14742 kbps / 1080i / 25 fps / 16:9 / Main Profile 4.1
********************
PLAYLIST: 00009.MPLS
********************
Total   Video
Title                                                           Codec   Length  Movie Size      Disc Size       Bitrate Bitrate Main Audio Track                          Secondary Audio Track
-----                                                           ------  ------- --------------  --------------  ------- ------- ------------------                        ---------------------
00009.MPLS                                                      AVC     0:00:47 55 062 528      24 084 324 564  9,36    8,44    DD AC3 5.1 448Kbps
DISC INFO:
Disc Title:     ZHILA_BILA_ODNA_BABA
Disc Size:      24 084 324 564 bytes
Protection:     AACS
BD-Java:        No
BDInfo:         0.5.6
PLAYLIST REPORT:
Name:                   00009.MPLS
Length:                 0:00:47 (h:m:s)
Size:                   55 062 528 bytes
Total Bitrate:          9,36 Mbps
VIDEO:
Codec                   Bitrate             Description
-----                   -------             -----------
MPEG-4 AVC Video        8443 kbps           1080p / 23,976 fps / 16:9 / Main Profile 4.1
AUDIO:
Codec                           Language        Bitrate         Description
-----                           --------        -------         -----------
Dolby Digital Audio             Russian         448 kbps        5.1 / 48 kHz / 448 kbps / DN -4dB
FILES:
Name            Time In         Length          Size            Total Bitrate
----            -------         ------          ----            -------------
00012.M2TS      0:00:00.000     0:00:47.047     55 062 528      9 363
CHAPTERS:
Number          Time In         Length          Avg Video Rate  Max 1-Sec Rate  Max 1-Sec Time  Max 5-Sec Rate  Max 5-Sec Time  Max 10Sec Rate  Max 10Sec Time  Avg Frame Size  Max Frame Size  Max Frame Time
------          -------         ------          --------------  --------------  --------------  --------------  --------------  --------------  --------------  --------------  --------------  --------------
1               0:00:00.000     0:00:47.047     8 443 kbps      27 014 kbps     00:00:05.338    17 100 kbps     00:00:02.001    14 233 kbps     00:00:01.459    44 018 bytes    264 360 bytes   00:00:05.505
STREAM DIAGNOSTICS:
File            PID             Type            Codec           Language                Seconds                 Bitrate                 Bytes           Packets
----            ---             ----            -----           --------                --------------          --------------          -------------   -----
00012.M2TS      4113 (0x1011)   0x1B            AVC                                     46,964                  8 458                   49 652 262      270 466
00012.M2TS      4352 (0x1100)   0x81            AC3             rus (Russian)           46,964                  449                     2 636 032       14 710
QUICK SUMMARY:
Disc Title: ZHILA_BILA_ODNA_BABA
Disc Size: 24 084 324 564 bytes
Protection: AACS
BD-Java: No
Playlist: 00009.MPLS
Size: 55 062 528 bytes
Length: 0:00:47
Total Bitrate: 9,36 Mbps
Video: MPEG-4 AVC Video / 8443 kbps / 1080p / 23,976 fps / 16:9 / Main Profile 4.1
Audio: Russian / Dolby Digital Audio / 5.1 / 48 kHz / 448 kbps / DN -4dB

Скриншоты меню

Скриншоты

Обложка и блин

http://multi-up.com/599541
--
[Профиль] [ЛС]
Кто просматривает тему:

Показать сообщения:    

Текущее время: Сегодня 00:38

Часовой пояс: GMT



Вы не можете начинать темы
Вы не можете отвечать на сообщения
Вы не можете редактировать свои сообщения
Вы не можете удалять свои сообщения
Вы не можете голосовать в опросах
Вы не можете прикреплять файлы к сообщениям
Вы не можете скачивать файлы