Жизнь – это долгая спокойная река / La vie est un long fleuve tranquille (1988) BDRip 720p | P

 
Автор Сообщение

Russian Mafia ®

Пол:

Стаж: 1 год 8 месяцев

Сообщений: 4260



Награды: 10 (Подробнее)

Mega Seeder 4 (Количество: 1) Top Releaser 2 (Количество: 1) Mega Seeder 3 (Количество: 1)
Торрент-статистика

Создавать темы 29-Мар-2016 05:27

[Цитировать]

Информация о фильме
Название: Жизнь – это долгая спокойная река
Оригинальное название: La vie est un long fleuve tranquille
Год выхода: 1988
Жанр: комедия, драма
Режиссер: Этьен Шатилье / Étienne Chatiliez
В ролях: Бенуа Мажимель, Валери Лаланд, Элен Винсент, Тара Ромер, Жером Флок, Андре Вильм, Даниель Желен, Катрин Жакоб
О фильме:
Богатая семья с ужасом обнаруживает, что их сын в результате ошибки в роддоме теперь воспитывается в семье каких-то мелких проходимцев...

Страна: Франция
Студия: Centre National de la Cinématographie (CNC), France 3 Cinéma, Investimage
Продолжительность: 01:31:24.832
Перевод: Профессиональный (многоголосый, закадровый) R5
Файл
Кодек: h.264
Качество: BDRip 720p
Видео: 1200x720 (1.667), 23.976 fps, AVC, ~8555 Kbps, 0.413 bits/pixel
Звук:
Русский, 48.0 KHz, AC3, 2 ch, 192 Kbps
Французский, 48.0 KHz, AC3, 2 ch, 448 Kbps
Французский, 48.0 KHz, AC3, 6 ch, 640 Kbps
Субтитры:
Французские, PGS
Английские, PGS (custom)

MI

Общее
Уникальный идентификатор : 196930263956546382394503355700559150088 (0x942763A4A48D76C799E9A9991426FC08)
Полное имя : E:FILMSZhizn_jeto_dolgaja_spokojnaja_reka.1988.BDRip720p.mkv
Формат : Matroska
Версия формата : Version 4 / Version 2
Размер файла : 6,29 Гбайт
Продолжительность : 1 ч. 31 м.
Общий поток : 9854 Кбит/сек
Дата кодирования : UTC 2016-03-19 01:05:17
Программа кодирования : mkvmerge v8.9.0 ('Father Daughter') 64bit
Библиотека кодирования : libebml v1.3.3 + libmatroska v1.4.4
Видео
Идентификатор : 1
Формат : AVC
Формат/Информация : Advanced Video Codec
Профиль формата : High@L4.1
Параметр CABAC формата : Да
Параметр ReFrames формата : 9 кадров
Идентификатор кодека : V_MPEG4/ISO/AVC
Продолжительность : 1 ч. 31 м.
Битрейт : 8555 Кбит/сек
Ширина : 1200 пикселей
Высота : 720 пикселей
Соотношение сторон : 5:3
Режим частоты кадров : Постоянный
Частота кадров : 23,976 (24000/1001) кадра/сек
Цветовое пространство : YUV
Субдискретизация насыщенности : 4:2:0
Битовая глубина : 8 бит
Тип развёртки : Прогрессивная
Бит/(Пиксели*Кадры) : 0.413
Размер потока : 5,46 Гбайт (87%)
Библиотека кодирования : x264 core 148 r2638 7599210
Настройки программы : cabac=1 / ref=9 / deblock=1:-3:-3 / analyse=0x3:0x133 / me=umh / subme=11 / psy=1 / psy_rd=1.10:0.15 / mixed_ref=1 / me_range=48 / chroma_me=1 / trellis=2 / 8x8dct=1 / cqm=0 / deadzone=21,11 / fast_pskip=0 / chroma_qp_offset=-3 / threads=8 / lookahead_threads=1 / sliced_threads=0 / nr=0 / decimate=0 / interlaced=0 / bluray_compat=0 / constrained_intra=0 / bframes=9 / b_pyramid=2 / b_adapt=2 / b_bias=0 / direct=3 / weightb=1 / open_gop=0 / weightp=2 / keyint=240 / keyint_min=23 / scenecut=40 / intra_refresh=0 / rc_lookahead=60 / rc=2pass / mbtree=0 / bitrate=8555 / ratetol=1.0 / qcomp=0.60 / qpmin=0 / qpmax=69 / qpstep=4 / cplxblur=20.0 / qblur=0.5 / vbv_maxrate=40000 / vbv_bufsize=50000 / nal_hrd=none / filler=0 / ip_ratio=1.40 / pb_ratio=1.30 / aq=1:1.00
Default : Нет
Forced : Нет
Цветовой диапазон : Limited
Основные цвета : BT.709
Характеристики трансфера : BT.709
Коэффициенты матрицы : BT.709
Аудио #1
Идентификатор : 2
Формат : AC-3
Формат/Информация : Audio Coding 3
Расширение режима : CM (complete main)
Параметр Endianness формата : Big
Идентификатор кодека : A_AC3
Продолжительность : 1 ч. 31 м.
Вид битрейта : Постоянный
Битрейт : 192 Кбит/сек
Каналы : 2 канала
Расположение каналов : Front: L R
Частота : 48,0 КГц
Частота кадров : 31,250 кадров/сек (1536 spf)
Метод сжатия : С потерями
Размер потока : 126 Мбайт (2%)
Язык : Russian
Default : Да
Forced : Нет
Аудио #2
Идентификатор : 3
Формат : AC-3
Формат/Информация : Audio Coding 3
Расширение режима : CM (complete main)
Параметр Endianness формата : Big
Идентификатор кодека : A_AC3
Продолжительность : 1 ч. 31 м.
Вид битрейта : Постоянный
Битрейт : 448 Кбит/сек
Каналы : 2 канала
Расположение каналов : Front: L R
Частота : 48,0 КГц
Частота кадров : 31,250 кадров/сек (1536 spf)
Метод сжатия : С потерями
Размер потока : 293 Мбайт (5%)
Язык : French
Default : Нет
Forced : Нет
Аудио #3
Идентификатор : 4
Формат : AC-3
Формат/Информация : Audio Coding 3
Расширение режима : CM (complete main)
Параметр Endianness формата : Big
Идентификатор кодека : A_AC3
Продолжительность : 1 ч. 31 м.
Вид битрейта : Постоянный
Битрейт : 640 Кбит/сек
Каналы : 6 каналов
Расположение каналов : Front: L C R, Side: L R, LFE
Частота : 48,0 КГц
Частота кадров : 31,250 кадров/сек (1536 spf)
Метод сжатия : С потерями
Размер потока : 418 Мбайт (6%)
Язык : French
Default : Нет
Forced : Нет
Текст #1
Идентификатор : 5
Формат : PGS
Режим смешивания : zlib
Идентификатор кодека : S_HDMV/PGS
Идентификатор кодека/Информация : Picture based subtitle format used on BDs/HD-DVDs
Продолжительность : 1 ч. 29 м.
Битрейт : 9987 бит/сек
Count of elements : 2453
Размер потока : 6,38 Мбайт (0%)
Язык : French
Default : Нет
Forced : Нет
Текст #2
Идентификатор : 6
Формат : PGS
Режим смешивания : zlib
Идентификатор кодека : S_HDMV/PGS
Идентификатор кодека/Информация : Picture based subtitle format used on BDs/HD-DVDs
Продолжительность : 1 ч. 29 м.
Битрейт : 9907 бит/сек
Count of elements : 1906
Размер потока : 6,33 Мбайт (0%)
Язык : English
Default : Нет
Forced : Нет
Меню
00:00:00.000 : en:00:00:00.000
00:07:31.534 : en:00:07:31.534
00:15:55.996 : en:00:15:55.996
00:24:02.566 : en:00:24:02.566
00:35:11.734 : en:00:35:11.734
00:40:57.872 : en:00:40:57.872
00:45:43.740 : en:00:45:43.740
00:54:13.375 : en:00:54:13.375
01:02:51.809 : en:01:02:51.809
01:11:55.102 : en:01:11:55.102
01:20:01.755 : en:01:20:01.755
01:27:08.264 : en:01:27:08.264

X264 log 2nd pass

frame I:807 Avg QP:17.21 size:168209
frame P:25040 Avg QP:19.59 size: 83271
frame B:105657 Avg QP:21.24 size: 34476

Скриншоты

Релиз от: Temperest
[Профиль] [ЛС]
Кто просматривает тему:

Форум Тема Автор Размер
Chanson (Шансон) VA - Блатная жизнь с радио Шансон - 2015, MP3, 256 kbps Magnat 706 MB
Chanson (Шансон) VA - Блатная жизнь с радио Шансон. Выпуск 3 - 2015, MP3, 256 kbps Magnat 684 MB
Сhanson (Шансон) Михаил Клёнов - Воровка-жизнь - 1994, MP3, 320 kbps Magnat 125 MB
Сhanson (Шансон) Потап и Корешки - Жизнь удалась, не пейте Шипр! - 2015, MP3, VBR 192-320 kbps Magnat 96 MB
Зарубежные мультфильмы A Bug's Life / Приключения Флика / Жизнь жуков (1998) BDRip 720p от HDClub | D, 2 x P, P2, A sergej644 4.38 GB
Animal Planet Animal Planet. Тайная жизнь домашних питомцев / Secret life of pets [01-06] (2014) HDTVRip от GeneralFilm | P1 sergej644 1.6 GB
Документальные HD BBC. Йеллоустоун: Борьба за жизнь / Yellowstone: Battle For Life (Питер Ферт /Peter Firth)[2009,Документальный,BDRip 1080i] | P1 sergej644 17.39 GB
BBC BBC: Жизнь млекопитающих / The Life of Mammals [серии 1-9 из 10] (Марк Линфилд, Нил Лукас, Ванесса Берловитц, Майк Сализбэрри, Хью Кордейт) [2002-2003 г., Документальный, природа, зоология, фау... skorpionN 11.95 GB
Показать сообщения:    

Текущее время: Сегодня 12:11

Часовой пояс: GMT



Вы не можете начинать темы
Вы не можете отвечать на сообщения
Вы не можете редактировать свои сообщения
Вы не можете удалять свои сообщения
Вы не можете голосовать в опросах
Вы не можете прикреплять файлы к сообщениям
Вы не можете скачивать файлы