Жизнь прекрасна / La Vita è bella (Роберто Бениньи)[1997, драма, мелодрама, военный, BDRip] 1080p

 
Автор Сообщение

sergej644 ®

Пол:

Стаж: 4 года 11 месяцев

Сообщений: 6038

Откуда: Soviet Union



Награды: Нет

Торрент-статистика

Создавать темы 13-Июл-2015 08:39

[Цитировать]

Жизнь прекрасна / La Vita è bella
«An unforgettable fable that proves love, family and imagination conquer all.»top 250/10Год выпуска: 1997
Страна: Италия
Жанр: драма, мелодрама, военный
Продолжительность: 118 мин.
Перевод: Профессиональный (двухголосый)+ английский+итальянский (оригинал)
Режиссер: Роберто Бениньи
Продюссер: Джанлуиджи Браски, Джон М. Дэвис, Эльда Ферри
Сценарий: Винченцо Черами, Роберто Бениньи
Премьера в мире: 20 декабря 1997

В ролях:
Роберто Бениньи, Николетта Браски, Джорджио Кантарини, Джустино Дурано, Серджио Бини Бустрик, Мариса Паредес,Хорст Буххольц, Лидия Альфонси, Джулиана Лоджодиче, Америго Фонтани
Описание:
Во время II Мировой войны в Италии в концлагерь были отправлены евреи, отец и его маленький сын. Жена, итальянка, добровольно последовала вслед за ними. В лагере отец сказал сыну, что все происходящее вокруг является очень большой игрой за приз в настоящий танк, который достанется тому мальчику, который сможет не попасться на глаза надзирателям. Он сделал все, чтобы сын поверил в игру и остался жив, прячась в бараке.

MediaInfo

Полное имя                       : La.Vita.è.bella.1997.BDRip.1080p.mkv
Формат                           : Matroska
Версия формата                   : Version 2
Размер файла                     : 7,84 Гбайт
Продолжительность                : 1 ч. 56 м.
Общий поток                      : 9665 Кбит/сек
Дата кодирования                 : UTC 2011-09-23 15:21:33
Программа кодирования            : mkvmerge v4.9.1 ('Ich will') сборка от Jul 11 2011 23:53:15
Библиотека кодирования           : libebml v1.2.1 + libmatroska v1.1.1
Видео
Идентификатор                    : 1
Формат                           : AVC
Формат/Информация                : Advanced Video Codec
Профиль формата                  : High@L4.1
Параметр CABAC формата           : Да
Параметр ReFrames формата        : 4 кадра
Идентификатор кодека             : V_MPEG4/ISO/AVC
Продолжительность                : 1 ч. 56 м.
Битрейт                          : 7878 Кбит/сек
Ширина                           : 1920 пикселей
Высота                           : 1040 пикселей
Соотношение сторон               : 16:9
Частота кадров                   : 23,976 кадра/сек
Цветовое пространство            : YUV
Субдискретизация насыщенности    : 4:2:0
Битовая глубина                  : 8 бит
Тип развёртки                    : Прогрессивная
Бит/(Пиксели*Кадры)              : 0.165
Размер потока                    : 6,24 Гбайт (80%)
Заголовок                        : BDRip 1080p by FREEISLAND
Библиотека кодирования           : x264 core 116 r2074 2641b9e
Настройки программы              : cabac=1 / ref=4 / deblock=1:-3:-3 / analyse=0x3:0x133 / me=umh / subme=9 / psy=1 / psy_rd=1.00:0.00 / mixed_ref=1 / me_range=48 / chroma_me=1 / trellis=2 / 8x8dct=1 / cqm=0 / deadzone=21,11 / fast_pskip=0 / chroma_qp_offset=-2 / threads=9 / sliced_threads=0 / nr=0 / decimate=1 / interlaced=0 / bluray_compat=0 / constrained_intra=0 / bframes=9 / b_pyramid=2 / b_adapt=2 / b_bias=35 / direct=1 / weightb=1 / open_gop=0 / weightp=2 / keyint=250 / keyint_min=23 / scenecut=40 / intra_refresh=0 / rc=2pass / mbtree=0 / bitrate=7878 / ratetol=1.0 / qcomp=1.00 / qpmin=0 / qpmax=51 / qpstep=2 / cplxblur=20.0 / qblur=0.5 / ip_ratio=1.40 / pb_ratio=1.30 / aq=1:1.00
Язык                             : Italian
Основные цвета                   : BT.709-5, BT.1361, IEC 61966-2-4, SMPTE RP177
Характеристики трансфера         : BT.709-5, BT.1361
Коэффициенты матрицы             : BT.709-5, BT.1361, IEC 61966-2-4 709, SMPTE RP177
Аудио #1
Идентификатор                    : 2
Формат                           : AC-3
Формат/Информация                : Audio Coding 3
Расширение режима                : CM (complete main)
Идентификатор кодека             : A_AC3
Продолжительность                : 1 ч. 56 м.
Вид битрейта                     : Постоянный
Битрейт                          : 384 Кбит/сек
Каналы                           : 6 каналов
Расположение каналов             : Front: L C R, Side: L R, LFE
Частота                          : 48,0 КГц
Битовая глубина                  : 16 бит
Метод сжатия                     : С потерями
Размер потока                    : 319 Мбайт (4%)
Язык                             : Russian
Аудио #2
Идентификатор                    : 3
Формат                           : DTS
Формат/Информация                : Digital Theater Systems
Идентификатор кодека             : A_DTS
Продолжительность                : 1 ч. 56 м.
Вид битрейта                     : Постоянный
Битрейт                          : 755 Кбит/сек
Каналы                           : 6 каналов
Расположение каналов             : Front: L C R, Side: L R, LFE
Частота                          : 48,0 КГц
Битовая глубина                  : 24 бит
Метод сжатия                     : С потерями
Размер потока                    : 627 Мбайт (8%)
Язык                             : Italian
Аудио #3
Идентификатор                    : 4
Формат                           : AC-3
Формат/Информация                : Audio Coding 3
Расширение режима                : CM (complete main)
Идентификатор кодека             : A_AC3
Продолжительность                : 1 ч. 56 м.
Вид битрейта                     : Постоянный
Битрейт                          : 640 Кбит/сек
Каналы                           : 6 каналов
Расположение каналов             : Front: L C R, Side: L R, LFE
Частота                          : 48,0 КГц
Битовая глубина                  : 16 бит
Метод сжатия                     : С потерями
Размер потока                    : 532 Мбайт (7%)
Язык                             : English
Текст #1
Идентификатор                    : 5
Формат                           : VobSub
Режим смешивания                 : zlib
Идентификатор кодека             : S_VOBSUB
Идентификатор кодека/Информация  : The same subtitle format used on DVDs
Язык                             : Russian
Текст #2
Идентификатор                    : 6
Формат                           : VobSub
Режим смешивания                 : zlib
Идентификатор кодека             : S_VOBSUB
Идентификатор кодека/Информация  : The same subtitle format used on DVDs
Язык                             : English
Меню
00:00:00.000                     : en:Chapter 01
00:05:41.883                     : en:Chapter 02
00:11:20.721                     : en:Chapter 03
00:16:43.544                     : en:Chapter 04
00:20:43.282                     : en:Chapter 05
00:25:21.561                     : en:Chapter 06
00:32:53.513                     : en:Chapter 07
00:35:57.196                     : en:Chapter 08
00:39:55.476                     : en:Chapter 09
00:47:40.440                     : en:Chapter 10
00:51:17.657                     : en:Chapter 11
00:54:11.831                     : en:Chapter 12
00:56:16.456                     : en:Chapter 13
01:02:07.305                     : en:Chapter 14
01:09:36.255                     : en:Chapter 15
01:13:45.003                     : en:Chapter 16
01:19:49.367                     : en:Chapter 17
01:22:26.024                     : en:Chapter 18
01:29:54.472                     : en:Chapter 19
01:38:55.012                     : en:Chapter 20
01:52:42.881                     : en:Chapter 21
01:56:10.963                     : en:Chapter 22
Качество: BDRip 1080p
Формат: MKV
Видео кодек: H.264
Аудио кодек: AC3 + DTS
Видео: 1920 x 1040 (1.846) at 23.976 fps AVC at 7878 Кбит/сек, High@L4.1
Аудио: AC-3 at 384 Кбит/сек 6 каналов, 48,0 КГц русский
Аудио: DTS at 758 Кбит/сек 6 каналов, 48,0 КГц итальянский
Аудио: AC-3 at 640 Кбит/сек 6 каналов, 48,0 КГц английский
Субтитры: английские, итальянские - VobSub

Скриншоты

[Профиль] [ЛС]

Создавать темы 06-Авг-2015 22:25 (спустя 24 дня)

Топик был перенесен из форума Фильмы до 2014 года в форум Фильмы (HD Rips | 720p, 1080p)
sergej644
 
Кто просматривает тему:

Форум Тема Автор Размер
Chanson (Шансон) VA - Блатная жизнь с радио Шансон - 2015, MP3, 256 kbps Magnat 706 MB
Chanson (Шансон) VA - Блатная жизнь с радио Шансон. Выпуск 3 - 2015, MP3, 256 kbps Magnat 684 MB
Сhanson (Шансон) Михаил Клёнов - Воровка-жизнь - 1994, MP3, 320 kbps Magnat 125 MB
Сhanson (Шансон) Потап и Корешки - Жизнь удалась, не пейте Шипр! - 2015, MP3, VBR 192-320 kbps Magnat 96 MB
Зарубежные мультфильмы A Bug's Life / Приключения Флика / Жизнь жуков (1998) BDRip 720p от HDClub | D, 2 x P, P2, A sergej644 4.38 GB
Animal Planet Animal Planet. Тайная жизнь домашних питомцев / Secret life of pets [01-06] (2014) HDTVRip от GeneralFilm | P1 sergej644 1.6 GB
Документальные HD BBC. Йеллоустоун: Борьба за жизнь / Yellowstone: Battle For Life (Питер Ферт /Peter Firth)[2009,Документальный,BDRip 1080i] | P1 sergej644 17.39 GB
BBC BBC: Жизнь млекопитающих / The Life of Mammals [серии 1-9 из 10] (Марк Линфилд, Нил Лукас, Ванесса Берловитц, Майк Сализбэрри, Хью Кордейт) [2002-2003 г., Документальный, природа, зоология, фау... skorpionN 11.95 GB
Показать сообщения:    

Текущее время: Сегодня 02:16

Часовой пояс: GMT



Вы не можете начинать темы
Вы не можете отвечать на сообщения
Вы не можете редактировать свои сообщения
Вы не можете удалять свои сообщения
Вы не можете голосовать в опросах
Вы не можете прикреплять файлы к сообщениям
Вы не можете скачивать файлы