Жизнь после Death From Above 1979 / Life After Death from Above 1979 (Eva Michon) [07.10.2014, Documentary, WEB-DL]

 
Автор Сообщение

TorrentFilm ®

Пол:

Стаж: 2 года

Сообщений: 7741



Награды: Нет

Торрент-статистика

Создавать темы 20-Дек-2014 02:00

[Цитировать]

Жизнь после Death From Above 1979 / Life After Death from Above 1979
Дата/Год выпуска: 07.10.2014
Страна: Canada
Жанр: Documentary
Продолжительность: 01:13:04
Перевод: Отсутствует
Русские субтитры: есть
Формат субтитров: softsub (SSA/ASS)
Оригинальная аудиодорожка: английский
Режиссер: Eva Michon
Описание: The life, death, and reunion of Canadian dance-punk two-piece band Death From Above 1979.
качество: WEB-DL
формат: MP4
Видео: avc1, 0.088, 1920 x 1080, 4 368 Kbps, 23.976 fps
Аудио: AAC, 256 Kbps, 48.0 KHz, 2 channels

MediaInfo

GeneralComplete name : D:\video\LIFE AFTER DEATH FROM ABOVE 1979-HD\LIFE AFTER DEATH FROM ABOVE 1979-HD.mp4Format : MPEG-4Format profile : Base Media / Version 2Codec ID : mp42File size : 2.36 GiBDuration : 1h 13mnOverall bit rate : 4 627 KbpsEncoded date : UTC 2014-10-07 02:34:44Tagged date : UTC 2014-10-07 02:34:44
VideoID : 1Format : AVCFormat/Info : Advanced Video CodecFormat profile : High@L4.0Format settings, CABAC : YesFormat settings, ReFrames : 4 framesCodec ID : avc1Codec ID/Info : Advanced Video CodingDuration : 1h 13mnBit rate mode : VariableBit rate : 4 368 KbpsWidth : 1 920 pixelsHeight : 1 080 pixelsDisplay aspect ratio : 16:9Frame rate mode : ConstantFrame rate : 23.976 fpsColor space : YUVChroma subsampling : 4:2:0Bit depth : 8 bitsScan type : ProgressiveBits/(Pixel*Frame) : 0.088Stream size : 2.23 GiB (94%)Writing library : x264 core 142 r2431 a5831aaEncoding settings : cabac=1 / ref=3 / deblock=1:0:0 / analyse=0x3:0x113 / me=hex / subme=7 / psy=1 / psy_rd=1.00:0.00 / mixed_ref=1 / me_range=16 / chroma_me=1 / trellis=1 / 8x8dct=1 / cqm=0 / deadzone=21,11 / fast_pskip=1 / chroma_qp_offset=-2 / threads=24 / lookahead_threads=4 / sliced_threads=0 / nr=0 / decimate=1 / interlaced=0 / bluray_compat=0 / stitchable=1 / constrained_intra=0 / bframes=3 / b_pyramid=2 / b_adapt=1 / b_bias=0 / direct=1 / weightb=1 / open_gop=0 / weightp=2 / keyint=72 / keyint_min=24 / scenecut=40 / intra_refresh=0 / rc_lookahead=40 / rc=crf / mbtree=1 / crf=20.0 / qcomp=0.60 / qpmin=5 / qpmax=69 / qpstep=4 / vbv_maxrate=4950 / vbv_bufsize=13500 / crf_max=0.0 / nal_hrd=none / filler=0 / ip_ratio=1.40 / aq=1:1.00Encoded date : UTC 2014-10-07 02:34:44Tagged date : UTC 2014-10-07 02:34:44
AudioID : 2Format : AACFormat/Info : Advanced Audio CodecFormat profile : LCCodec ID : 40Duration : 1h 13mnBit rate mode : VariableBit rate : 256 KbpsChannel(s) : 2 channelsChannel positions : Front: L RSampling rate : 48.0 KHzCompression mode : LossyStream size : 134 MiB (6%)Encoded date : UTC 2014-10-07 02:34:44Tagged date : UTC 2014-10-07 02:34:44

Скриншоты

Пример субтитров

- Можешь рассказать о том, что ты сейчас делаешь?
- Я просто загружаю сэмплы для Интро
и Аутро сэмплы
из записей, которые мы сделали.
Эл и Джесси играют в студии
Джесси играет на барабанах, а Эл на клавишах
звучит как...Hip-Hop...
Последние два года в группе мы вообще не обсуждали
на репетициях использование примочек
таких как сэмплер или что-то подобное
мы не были уверены, что это подойдет живому звуку группы
и не было шанса испытать их.
Во время первой репетиции с этим мы оба были взволнованы
Я был очень взволнован. Я знал как это использовать
был уверен...
но в то же время очень нервничал. и потом,
Когда мы начали играть...
Это было очень неплохо для первого раза
Действительно хорошо для первого раза за несколько лет
Следующие несколько репетиций
нервозность ушла
но было это возбуждение, когда играешь музыку
и немного погодя
пришло понимание, что это то, что нам нужно
[Профиль] [ЛС]
Кто просматривает тему:

Форум Тема Автор Размер
Chanson (Шансон) VA - Блатная жизнь с радио Шансон - 2015, MP3, 256 kbps Magnat 706 MB
Chanson (Шансон) VA - Блатная жизнь с радио Шансон. Выпуск 3 - 2015, MP3, 256 kbps Magnat 684 MB
Сhanson (Шансон) Михаил Клёнов - Воровка-жизнь - 1994, MP3, 320 kbps Magnat 125 MB
Сhanson (Шансон) Потап и Корешки - Жизнь удалась, не пейте Шипр! - 2015, MP3, VBR 192-320 kbps Magnat 96 MB
Зарубежные мультфильмы A Bug's Life / Приключения Флика / Жизнь жуков (1998) BDRip 720p от HDClub | D, 2 x P, P2, A sergej644 4.38 GB
Animal Planet Animal Planet. Тайная жизнь домашних питомцев / Secret life of pets [01-06] (2014) HDTVRip от GeneralFilm | P1 sergej644 1.6 GB
Документальные HD BBC. Йеллоустоун: Борьба за жизнь / Yellowstone: Battle For Life (Питер Ферт /Peter Firth)[2009,Документальный,BDRip 1080i] | P1 sergej644 17.39 GB
BBC BBC: Жизнь млекопитающих / The Life of Mammals [серии 1-9 из 10] (Марк Линфилд, Нил Лукас, Ванесса Берловитц, Майк Сализбэрри, Хью Кордейт) [2002-2003 г., Документальный, природа, зоология, фау... skorpionN 11.95 GB
Показать сообщения:    

Текущее время: Сегодня 20:44

Часовой пояс: GMT



Вы не можете начинать темы
Вы не можете отвечать на сообщения
Вы не можете редактировать свои сообщения
Вы не можете удалять свои сообщения
Вы не можете голосовать в опросах
Вы не можете прикреплять файлы к сообщениям
Вы не можете скачивать файлы