Жизнь под водой ( 12 серий из 12 ) / Fish Life (Мануэль Лефевр / Manuel Lefevre) [2009, Франция, Документальный, научно-познавательный, фауна, HDTVRip 720p] MVO

 
Автор Сообщение

TorrentFilm ®

Пол:

Стаж: 1 год 11 месяцев

Сообщений: 7741



Награды: Нет

Торрент-статистика

Создавать темы 02-Фев-2015 00:16

[Цитировать]

Жизнь под водой / Fish Life
Год выпуска: 2009
Страна: Франция
Жанр: Документальный, научно-познавательный, фауна
Продолжительность: 12 х ~ 00:25:00
Перевод: Профессиональный (одноголосый)
Режиссёр: Мануэль Лефевр / Manuel Lefevre
Описание: Океан имеет своих звезд - акул, скатов, дельфинов и китов. Но в его темных глубинах существует также и скромная жизнь, сдержанных и малоизвестных существ. Хотя их роль в подводном театре жизни не менее важна. Отличный рассказ и увлекательные съемки, позволят вам заново открыть для себя подводный мир, секреты его жителей и восхититься его красотой.
Качество: HDTVRip (720p)
Формат: MKV
Видео: MPEG-4 AVC, 1280x720, ~ 3800 kbps, 25.000 fps
Аудио: Russian: AC3 2.0, 48 kHz, 192 kbps

Список эпизодов:
01.Движение
02.Морские пустыни
03.Цветовой код
04.Море любви
05.Коралловый театр
06.Опасности в море
07.Борьба за жизненное пространство
08.Невидимые
09.Питание
10.Странные, причудливые и необычные
11.Ночная жизнь
12.В сердце рифа

MediaInfo

General
Unique ID : 202289191578367516560585041281703180198 (0x982F7B2C8F1ACF409D9A84A2731B77A6)
Complete name : I:\Fish.Life.2009-2010.x264.HDTVRip.(720p)\05.Коралловый театр.mkv
Format : Matroska
Format version : Version 4 / Version 2
File size : 732 MiB
Duration : 25mn 13s
Overall bit rate : 4 055 Kbps
Movie name : Fish Life-The Coral Theater / 2009-2010 / Rip by PowerRock / ExKinoRay
Encoded date : UTC 2015-01-17 08:14:29
Writing application : mkvmerge v7.4.0 ('Circles') 64bit built on Dec 12 2014 12:19:56
Writing library : libebml v1.3.0 + libmatroska v1.4.1
DURATION : 00:25:13.408000000
NUMBER_OF_FRAMES : 47294
NUMBER_OF_BYTES : 36321792
_STATISTICS_WRITING_APP : mkvmerge v7.4.0 ('Circles') 64bit built on Dec 12 2014 12:19:56
_STATISTICS_WRITING_DATE_UTC : 2015-01-17 08:14:29
_STATISTICS_TAGS : BPS DURATION NUMBER_OF_FRAMES NUMBER_OF_BYTES
Video
ID : 1
Format : AVC
Format/Info : Advanced Video Codec
Format profile : High@L4.1
Format settings, CABAC : Yes
Format settings, ReFrames : 7 frames
Codec ID : V_MPEG4/ISO/AVC
Duration : 25mn 13s
Bit rate : 3 862 Kbps
Width : 1 280 pixels
Height : 720 pixels
Display aspect ratio : 16:9
Frame rate mode : Constant
Frame rate : 25.000 fps
Color space : YUV
Chroma subsampling : 4:2:0
Bit depth : 8 bits
Scan type : Progressive
Bits/(Pixel*Frame) : 0.168
Stream size : 682 MiB (93%)
Title : Fish Life-The Coral Theater / 2009-2010
Writing library : x264 core 130 r2273 b3065e6
Encoding settings : cabac=1 / ref=7 / deblock=1:-2:-1 / analyse=0x3:0x133 / me=umh / subme=10 / psy=1 / psy_rd=1.00:0.10 / mixed_ref=1 / me_range=24 / chroma_me=1 / trellis=2 / 8x8dct=1 / cqm=0 / deadzone=21,11 / fast_pskip=0 / chroma_qp_offset=-3 / threads=6 / lookahead_threads=1 / sliced_threads=0 / nr=0 / decimate=1 / interlaced=0 / bluray_compat=0 / constrained_intra=0 / bframes=5 / b_pyramid=2 / b_adapt=2 / b_bias=0 / direct=3 / weightb=1 / open_gop=0 / weightp=2 / keyint=250 / keyint_min=23 / scenecut=40 / intra_refresh=0 / rc_lookahead=50 / rc=2pass / mbtree=1 / bitrate=3862 / ratetol=1.0 / qcomp=0.60 / qpmin=10 / qpmax=51 / qpstep=4 / cplxblur=20.0 / qblur=0.5 / ip_ratio=1.40 / aq=1:1.00
Default : Yes
Forced : No
DURATION : 00:25:13.480000000
NUMBER_OF_FRAMES : 37837
NUMBER_OF_BYTES : 730408481
_STATISTICS_WRITING_APP : mkvmerge v7.4.0 ('Circles') 64bit built on Dec 12 2014 12:19:56
_STATISTICS_WRITING_DATE_UTC : 2015-01-17 08:14:29
_STATISTICS_TAGS : BPS DURATION NUMBER_OF_FRAMES NUMBER_OF_BYTES
Audio
ID : 2
Format : AC-3
Format/Info : Audio Coding 3
Mode extension : CM (complete main)
Format settings, Endianness : Big
Codec ID : A_AC3
Duration : 25mn 13s
Bit rate mode : Constant
Bit rate : 192 Kbps
Channel(s) : 2 channels
Channel positions : Front: L R
Sampling rate : 48.0 KHz
Bit depth : 16 bits
Compression mode : Lossy
Stream size : 34.6 MiB (5%)
Language : Russian
Default : Yes
Forced : No

Скриншоты



[Профиль] [ЛС]
Кто просматривает тему:

Форум Тема Автор Размер
Chanson (Шансон) VA - Блатная жизнь с радио Шансон - 2015, MP3, 256 kbps Magnat 706 MB
Chanson (Шансон) VA - Блатная жизнь с радио Шансон. Выпуск 3 - 2015, MP3, 256 kbps Magnat 684 MB
Сhanson (Шансон) Михаил Клёнов - Воровка-жизнь - 1994, MP3, 320 kbps Magnat 125 MB
Сhanson (Шансон) Потап и Корешки - Жизнь удалась, не пейте Шипр! - 2015, MP3, VBR 192-320 kbps Magnat 96 MB
Зарубежные мультфильмы A Bug's Life / Приключения Флика / Жизнь жуков (1998) BDRip 720p от HDClub | D, 2 x P, P2, A sergej644 4.38 GB
Animal Planet Animal Planet. Тайная жизнь домашних питомцев / Secret life of pets [01-06] (2014) HDTVRip от GeneralFilm | P1 sergej644 1.6 GB
Документальные HD BBC. Йеллоустоун: Борьба за жизнь / Yellowstone: Battle For Life (Питер Ферт /Peter Firth)[2009,Документальный,BDRip 1080i] | P1 sergej644 17.39 GB
BBC BBC: Жизнь млекопитающих / The Life of Mammals [серии 1-9 из 10] (Марк Линфилд, Нил Лукас, Ванесса Берловитц, Майк Сализбэрри, Хью Кордейт) [2002-2003 г., Документальный, природа, зоология, фау... skorpionN 11.95 GB
Показать сообщения:    

Текущее время: Сегодня 20:04

Часовой пояс: GMT



Вы не можете начинать темы
Вы не можете отвечать на сообщения
Вы не можете редактировать свои сообщения
Вы не можете удалять свои сообщения
Вы не можете голосовать в опросах
Вы не можете прикреплять файлы к сообщениям
Вы не можете скачивать файлы