Жизнь Пи / Life of Pi (2012) UHD BDRemux 2160p | 4K | HDR | D, A, L1 | Лицензия

 
Автор Сообщение

BOSS ®

Пол:

Стаж: 3 года

Сообщений: 7633

Откуда: ODESSA



Награды: 22 (Подробнее)

Top Keeper 2 (Количество: 1) Top Seeder 2 (Количество: 1) Mega Releaser 2 (Количество: 1)
Торрент-статистика

Создавать темы 09-Окт-2017 19:46

[Цитировать]

Информация о фильме
Название: Жизнь Пи
Оригинальное название: Life of Pi
Год выхода: 2012
Жанр: Драма, приключения
Режиссер: Энг Ли
В ролях: Сурадж Шарма, Ирфан Кхан, Рейф Сполл, Табу, Адиль Хуссэйн, Жерар Депардье, Аюш Тандон, Гаутам Белур, Аяан Кхан, Мохд Аббас Халили
О фильме:
Это история сына владельца одного индийского зоопарка, мальчика по имени Пи. Он познаёт мир, учится отстаивать свои принципы, ищет собственную дорогу к Богу, живя по канонам трёх конфессий, влюбляется… Но волей судьбы его семья вынуждена эмигрировать. На полпути между Индией и Канадой корабль терпит крушение, и Пи остается в шлюпке вместе с бенгальским тигром, гиеной, зеброй и орангутангом. Вокруг безбрежная водная гладь, а впереди — неизвестность…

Страна: США, Тайвань
Студия: Dune Entertainment, Fox 2000 Pictures
Продолжительность: 02:07:09
Перевод: Профессиональный (дублированный), авторский (одноголосый закадровый), любительский (одноголосый закадровый)
Файл
Формат: MKV
Качество: 4K UHD BDRemux 2160p
Видео: MPEG-H HEVC Video / 44994 kbps / 3840x2160 / 23.976 fps / 16:9 / Main 10 Profile 5.1 High / 4:2:0 / 10 bits / HDR / BT.2020
Звук:
Russian: DTS / 5.1 / 48 kHz / 768 kbps / 16 bits - Дубляж (Blu-Ray)
Russian: DTS-HD Master Audio / 7.1 / 48 kHz / 4751 kbps / 24-bit - Ю. Сербин
Russian: DTS-HD Master Audio / 7.1 / 48 kHz / 4739 kbps / 24-bit - А. Дасевич
Russian: AC3 / 5.1 / 48 kHz / 384 kbps / 16 bits - zamez
Ukrainian: AC3 / 5.1 / 48 kHz / 448 kbps / 16 bits - Дубляж (Blu-Ray)
English: DTS-HD Master Audio / 7.1 / 48 kHz / 4698 kbps / 24-bit - Original
Cубтитры: русские (forced, full), украинские (forced, full), английские (forced, full, SDH, SDH-Colored)

MediaInfo

Format : Matroska
Format version : Version 4 / Version 2
File size : 53.7 GiB
Duration : 2h 7mn
Overall bit rate : 60.5 Mbps
Encoded date : UTC 2017-10-08 16:51:42
Writing application : mkvmerge v16.0.0 ('Protest') 64-bit
Writing library : libebml v1.3.5 + libmatroska v1.4.8
Attachments : poster.png
Video
ID : 1
Format : HEVC
Format/Info : High Efficiency Video Coding
Format profile : Main 10@L5.1@High
Codec ID : V_MPEGH/ISO/HEVC
Duration : 2 h 7 min
Bit rate : 44.7 Mb/s
Width : 3 840 pixels
Height : 2 160 pixels
Display aspect ratio : 16:9
Frame rate mode : Constant
Frame rate : 23.976 (24000/1001) FPS
Color space : YUV
Chroma subsampling : 4:2:0 (Type 2)
Bit depth : 10 bits
Bits/(Pixel*Frame) : 0.225
Stream size : 39.7 GiB (84%)
Writing library : ATEME Titan File 3.7.0 (4.7.0.2004)
Default : Yes
Forced : No
Color range : Limited
Color primaries : BT.2020
Transfer characteristics : PQ
Matrix coefficients : BT.2020 non-constant
Mastering display color pri : R: x=0.680000 y=0.320000, G: x=0.265000 y=0.690000, B: x=0.150000 y=0.060000, White point: x=0.312700 y=0.329000
Mastering display luminance : min: 0.0000 cd/m2, max: 1100.0000 cd/m2
Audio #1
ID : 2
Format : DTS
Format/Info : Digital Theater Systems
Codec ID : A_DTS
Duration : 2h 7mn
Bit rate mode : Constant
Bit rate : 755 Kbps
Channel(s) : 6 channels
Channel positions : Front: L C R, Surround: L R, LFE
Sampling rate : 48.0 KHz
Resolution : 24 bits
Stream size : 686 MiB (1%)
Title : Dub, Blu-Ray
Language : Russian
Audio #2
ID : 3
Format : DTS
Format/Info : Digital Theater Systems
Format profile : MA
Codec ID : A_DTS
Duration : 2h 7mn
Bit rate mode : Variable
Channel(s) : 8 channels
Channel positions : Front: L C R, Surround: L R, Surround: C C, LFE
Sampling rate : 48.0 KHz
Resolution : 24 bits
Title : Ю. Сербин
Language : Russian
Audio #3
ID : 4
Format : DTS
Format/Info : Digital Theater Systems
Format profile : MA
Codec ID : A_DTS
Duration : 2h 7mn
Bit rate mode : Variable
Channel(s) : 8 channels
Channel positions : Front: L C R, Surround: L R, Surround: C C, LFE
Sampling rate : 48.0 KHz
Resolution : 24 bits
Title : А. Дасевич
Language : Russian
Audio #4
ID : 5
Format : AC-3
Format/Info : Audio Coding 3
Codec ID : A_AC3
Duration : 2h 7mn
Bit rate mode : Constant
Bit rate : 384 Kbps
Channel(s) : 6 channels
Channel positions : Front: L C R, Surround: L R, LFE
Sampling rate : 48.0 KHz
Stream size : 349 MiB (1%)
Title : zamez
Language : Russian
Audio #5
ID : 6
Format : AC-3
Format/Info : Audio Coding 3
Codec ID : A_AC3
Duration : 2h 7mn
Bit rate mode : Constant
Bit rate : 448 Kbps
Channel(s) : 6 channels
Channel positions : Front: L C R, Surround: L R, LFE
Sampling rate : 48.0 KHz
Stream size : 407 MiB (1%)
Title : Dub, Blu-Ray
Language : Ukrainian
Audio #6
ID : 7
Format : DTS
Format/Info : Digital Theater Systems
Format profile : MA
Codec ID : A_DTS
Duration : 2h 7mn
Bit rate mode : Variable
Channel(s) : 8 channels
Channel positions : Front: L C R, Surround: L R, Surround: C C, LFE
Sampling rate : 48.0 KHz
Resolution : 24 bits
Video delay : 2ms
Text #1
ID : 8
Format : UTF-8
Codec ID : S_TEXT/UTF8
Codec ID/Info : UTF-8 Plain Text
Title : forced
Language : Russian
Text #2
ID : 9
Format : UTF-8
Codec ID : S_TEXT/UTF8
Codec ID/Info : UTF-8 Plain Text
Title : full, R5
Language : Russian
Text #3
ID : 10
Format : UTF-8
Codec ID : S_TEXT/UTF8
Codec ID/Info : UTF-8 Plain Text
Title : full, Blu-Ray
Language : Russian
Text #4
ID : 11
Format : UTF-8
Codec ID : S_TEXT/UTF8
Codec ID/Info : UTF-8 Plain Text
Title : forced
Language : Ukrainian
Text #5
ID : 12
Format : UTF-8
Codec ID : S_TEXT/UTF8
Codec ID/Info : UTF-8 Plain Text
Title : full
Language : Ukrainian
Text #6
ID : 13
Format : UTF-8
Codec ID : S_TEXT/UTF8
Codec ID/Info : UTF-8 Plain Text
Title : forced
Text #7
ID : 14
Format : UTF-8
Codec ID : S_TEXT/UTF8
Codec ID/Info : UTF-8 Plain Text
Title : full
Text #8
ID : 15
Format : UTF-8
Codec ID : S_TEXT/UTF8
Codec ID/Info : UTF-8 Plain Text
Title : SDH
Text #9
ID : 16
Format : UTF-8
Codec ID : S_TEXT/UTF8
Codec ID/Info : UTF-8 Plain Text
Title : SDH-Colored
Menu
00:00:00.000 : en:Chapter 1
00:03:58.821 : en:Chapter 2
00:11:13.172 : en:Chapter 3
00:15:24.923 : en:Chapter 4
00:21:29.621 : en:Chapter 5
00:25:44.542 : en:Chapter 6
00:29:46.826 : en:Chapter 7
00:31:31.014 : en:Chapter 8
00:35:34.298 : en:Chapter 9
00:45:24.346 : en:Chapter 10
00:50:21.893 : en:Chapter 11
00:54:13.333 : en:Chapter 12
00:57:18.351 : en:Chapter 13
01:00:07.395 : en:Chapter 14
01:04:12.056 : en:Chapter 15
01:09:32.084 : en:Chapter 16
01:11:48.053 : en:Chapter 17
01:13:34.284 : en:Chapter 18
01:16:47.561 : en:Chapter 19
01:21:31.177 : en:Chapter 20
01:23:10.026 : en:Chapter 21
01:26:30.852 : en:Chapter 22
01:31:21.434 : en:Chapter 23
01:34:13.856 : en:Chapter 24
01:43:42.674 : en:Chapter 25
01:47:38.660 : en:Chapter 26
01:55:20.079 : en:Chapter 27
01:59:16.273 : en:Chapter 28

Скриншоты


[Профиль] [ЛС]
Показать сообщения:    

Текущее время: Сегодня 19:06

Часовой пояс: GMT



Вы не можете начинать темы
Вы не можете отвечать на сообщения
Вы не можете редактировать свои сообщения
Вы не можете удалять свои сообщения
Вы не можете голосовать в опросах
Вы не можете прикреплять файлы к сообщениям
Вы не можете скачивать файлы