Жизнь начинается / Une vie qui commence (Мишель Монти / Michel Monty) [2010, Канада, драма, DVDRip] VO (viktor 2838)

 
Автор Сообщение

TorrentFilm ®

Пол:

Стаж: 2 года

Сообщений: 7741



Награды: Нет

Торрент-статистика

Создавать темы 03-Апр-2015 00:03

[Цитировать]

Жизнь начинается / Une vie qui commence
Страна: Канада
Жанр: драма
Год выпуска: 2010
Продолжительность: 01:43:28
Перевод: Одноголосый закадровый (viktor_2838) по субтитрам madelephant
Cубтитры: нет
Оригинальная аудиодорожка: нет
Режиссер: Мишель Монти / Michel Monty
В ролях: Жюли ЛеБретон, Франсуа Папино, Рэймонд Клотье, Рита Лафонтен, Мэтис Бриссон, Чарльз Энтони Перриот и др.
Описание: Двенадцатилетний Этьен боготворит своего отца врача, Жака. Они всегда неразлучны и делают все вместе. Жак берет сына с собой на работу в больницу и учит своему ремеслу, учит его играть в гольф и многим другим вещам. Покупает Этьену его первый пиджак и учит завязывать галстук. Однако Жак становится зависимым от наркотиков, втайне их воруя в больнице. Наркотики все больше подрывают его здоровье и вскоре он умирает. Для Этьена это стало тяжелейшим ударом, он опустошен и подавлен. И начинает свое движение вниз, которое может закончить его юную жизнь.
Сэмпл: https://yadi.sk/i/DYm3ibB8fdanm
Качество видео: DVDRip
Формат видео: AVI
Видео: 720х400, 1425 Кбит/сек, 16:9, 25,000 кадров/сек, 0.198 Бит/пикс
Аудио: 48,0 КГц, MPEG Layer 3, 2 канала, 192 Кбит/сек

MediaInfo

Общее
Полное имя : G:\Жизнь начинается (2010)\Une vie qui commence.avi
Формат : AVI
Формат/Информация : Audio Video Interleave
Размер файла : 1,18 Гбайт
Продолжительность : 1 ч. 43 м.
Общий поток : 1627 Кбит/сек
Программа кодирования : VirtualDubMod 1.5.10.2 (build 2540/release)
Библиотека кодирования : VirtualDubMod build 2540/release
Видео
Идентификатор : 0
Формат : xvid
Идентификатор кодека : xvid
Продолжительность : 1 ч. 43 м.
Битрейт : 1425 Кбит/сек
Ширина : 720 пикселей
Высота : 400 пикселей
Соотношение сторон : 16:9
Частота кадров : 25,000 кадров/сек
Бит/(Пиксели*Кадры) : 0.198
Размер потока : 1,03 Гбайт (88%)
Аудио
Идентификатор : 1
Формат : MPEG Audio
Версия формата : Version 1
Профиль формата : Layer 3
Режим : Joint stereo
Расширение режима : MS Stereo
Идентификатор кодека : 55
Идентификатор кодека/Подсказка : MP3
Продолжительность : 1 ч. 43 м.
Вид битрейта : Постоянный
Битрейт : 192 Кбит/сек
Каналы : 2 канала
Частота : 48,0 КГц
Метод сжатия : С потерями
Размер потока : 142 Мбайт (12%)
Выравнивание : Разделение по промежуткам
Продолжительность промежутка : 40 мс. (1,00 видеокадр)
Время предзагрузки промежутка : 500 мс.
Библиотека кодирования : LAME3.96

Скриншот c названием фильма

Скриншоты

[Профиль] [ЛС]

Создавать темы 06-Авг-2015 22:40 (спустя 4 месяца 3 дня)

Топик был перенесен из форума Фильмы до 2014 года в форум Фильмы до 2012 года
sergej644
 

Создавать темы 12-Июн-2016 07:54 (спустя 1 год 2 месяца)

Топик был перенесен из форума Фильмы 2011 года в форум Фильмы 2010 года
Russian Mafia
 
Кто просматривает тему:

Форум Тема Автор Размер
Chanson (Шансон) VA - Блатная жизнь с радио Шансон - 2015, MP3, 256 kbps Magnat 706 MB
Chanson (Шансон) VA - Блатная жизнь с радио Шансон. Выпуск 3 - 2015, MP3, 256 kbps Magnat 684 MB
Сhanson (Шансон) Михаил Клёнов - Воровка-жизнь - 1994, MP3, 320 kbps Magnat 125 MB
Сhanson (Шансон) Потап и Корешки - Жизнь удалась, не пейте Шипр! - 2015, MP3, VBR 192-320 kbps Magnat 96 MB
Зарубежные мультфильмы A Bug's Life / Приключения Флика / Жизнь жуков (1998) BDRip 720p от HDClub | D, 2 x P, P2, A sergej644 4.38 GB
Animal Planet Animal Planet. Тайная жизнь домашних питомцев / Secret life of pets [01-06] (2014) HDTVRip от GeneralFilm | P1 sergej644 1.6 GB
Документальные HD BBC. Йеллоустоун: Борьба за жизнь / Yellowstone: Battle For Life (Питер Ферт /Peter Firth)[2009,Документальный,BDRip 1080i] | P1 sergej644 17.39 GB
BBC BBC: Жизнь млекопитающих / The Life of Mammals [серии 1-9 из 10] (Марк Линфилд, Нил Лукас, Ванесса Берловитц, Майк Сализбэрри, Хью Кордейт) [2002-2003 г., Документальный, природа, зоология, фау... skorpionN 11.95 GB
Показать сообщения:    

Текущее время: Сегодня 14:57

Часовой пояс: GMT



Вы не можете начинать темы
Вы не можете отвечать на сообщения
Вы не можете редактировать свои сообщения
Вы не можете удалять свои сообщения
Вы не можете голосовать в опросах
Вы не можете прикреплять файлы к сообщениям
Вы не можете скачивать файлы