Жизнь за брата / The Heavy (2010) BDRip-AVC | Р

 
Автор Сообщение

Russian Mafia ®

Пол:

Стаж: 1 год 8 месяцев

Сообщений: 4256



Награды: 10 (Подробнее)

Top Releaser 3 (Количество: 1) За внесенный вклад в развитие сайта (Количество: 1) Mega Seeder 2 (Количество: 1)
Торрент-статистика

Создавать темы 26-Сен-2016 13:15

[Цитировать]

Жизнь за брата / The Heavy
Страна: Великобритания США
Производство: Contraption Limited, Heavy Productions
Год выпуска: 2010
Жанр: триллер
Продолжительность: 01:41:46
Режиссер: Маркус Уоррен
Автор сценария: Маркус Уоррен
В ролях: Гари Стретч, Винни Джонс, Стивен Ри, Шаннин Соссамон, Кристофер Ли, Ли Райан, Эдриан Пол, Джин Марш, Сэди Фрост, Джофф Белл
Описание: Герой фильма — бандит-«шестёрка» Бутс, который в уплату долга своему боссу должен убить собственного брата-политика. По ходу реализации плана в пустой квартире из которой должен быть произведен роковой выстрел случайно оказывается симпатичная студентка Клэр. Так же дело осложняется тем, что по следу потенциального киллера идёт коррумпированный детектив Данн...

Перевод: Профессиональный (многоголосый, закадровый) | R5
Субтитры: нет-Качество: BDRip-AVC
Формат: MKV
Видео кодек: AVC
Аудио кодек: AC3
Видео: 1044x564 (1.85:1), 23.976 fps, MPEG-4 AVC ~1 661 kbps avg
Аудио: 48.0 kHz, AC3 Dolby Digital, 3/2 (L,C,R,l,r) + LFE ch, ~384 kbps
Дата премьеры (мир): 8 апреля 2010

Media Info

Unique ID : 244728859660158690882148740331491169703 (0xB81D105C3E56029AAF522D381E1615A7)
Complete name : Ghizn za brata.chopper887.mkv
Format : Matroska
File size : 1.45 GiB
Duration : 1h 41mn
Overall bit rate : 2 046 Kbps
Movie name : Ghizn za brata.chopper887
Encoded date : UTC 2012-01-26 15:17:28
Writing application : mkvmerge v4.8.0 ('I Got The...') сборка от May 24 2011 03:12:58
Writing library : libebml v1.2.0 + libmatroska v1.1.0
Video
ID : 1
Format : AVC
Format/Info : Advanced Video Codec
Format profile : High@L4.0
Format settings, CABAC : Yes
Format settings, ReFrames : 10 frames
Codec ID : V_MPEG4/ISO/AVC
Duration : 1h 41mn
Bit rate : 1 661 Kbps
Width : 1 044 pixels
Height : 564 pixels
Display aspect ratio : 1.851
Frame rate : 23.976 fps
Color space : YUV
Chroma subsampling : 4:2:0
Bit depth : 8 bits
Scan type : Progressive
Bits/(Pixel*Frame) : 0.118
Stream size : 1.15 GiB (79%)
Title : Ghizn za brata.chopper887
Writing library : x264 core 116 r2074 2641b9e
Encoding settings : cabac=1 / ref=10 / deblock=1:-2:-1 / analyse=0x3:0x133 / me=umh / subme=11 / psy=1 / psy_rd=1.00:0.10 / mixed_ref=1 / me_range=32 / chroma_me=1 / trellis=2 / 8x8dct=1 / cqm=0 / deadzone=21,11 / fast_pskip=0 / chroma_qp_offset=-3 / threads=12 / sliced_threads=0 / nr=0 / decimate=1 / interlaced=0 / bluray_compat=0 / constrained_intra=0 / bframes=8 / b_pyramid=2 / b_adapt=2 / b_bias=0 / direct=3 / weightb=1 / open_gop=0 / weightp=2 / keyint=250 / keyint_min=23 / scenecut=40 / intra_refresh=0 / rc_lookahead=80 / rc=2pass / mbtree=1 / bitrate=1661 / ratetol=1.0 / qcomp=0.60 / qpmin=0 / qpmax=69 / qpstep=4 / cplxblur=20.0 / qblur=0.5 / ip_ratio=1.40 / aq=1:1.00
Language : English
Audio
ID : 2
Format : AC-3
Format/Info : Audio Coding 3
Mode extension : CM (complete main)
Codec ID : A_AC3
Duration : 1h 41mn
Bit rate mode : Constant
Bit rate : 384 Kbps
Channel(s) : 6 channels
Channel positions : Front: L C R, Side: L R, LFE
Sampling rate : 48.0 KHz
Bit depth : 16 bits
Compression mode : Lossy
Stream size : 280 MiB (19%)
Title : MVO

Скриншоты

[Профиль] [ЛС]
Кто просматривает тему:

Форум Тема Автор Размер
Chanson (Шансон) VA - Блатная жизнь с радио Шансон - 2015, MP3, 256 kbps Magnat 706 MB
Chanson (Шансон) VA - Блатная жизнь с радио Шансон. Выпуск 3 - 2015, MP3, 256 kbps Magnat 684 MB
Сhanson (Шансон) Михаил Клёнов - Воровка-жизнь - 1994, MP3, 320 kbps Magnat 125 MB
Сhanson (Шансон) Потап и Корешки - Жизнь удалась, не пейте Шипр! - 2015, MP3, VBR 192-320 kbps Magnat 96 MB
Зарубежные мультфильмы A Bug's Life / Приключения Флика / Жизнь жуков (1998) BDRip 720p от HDClub | D, 2 x P, P2, A sergej644 4.38 GB
Animal Planet Animal Planet. Тайная жизнь домашних питомцев / Secret life of pets [01-06] (2014) HDTVRip от GeneralFilm | P1 sergej644 1.6 GB
Документальные HD BBC. Йеллоустоун: Борьба за жизнь / Yellowstone: Battle For Life (Питер Ферт /Peter Firth)[2009,Документальный,BDRip 1080i] | P1 sergej644 17.39 GB
BBC BBC: Жизнь млекопитающих / The Life of Mammals [серии 1-9 из 10] (Марк Линфилд, Нил Лукас, Ванесса Берловитц, Майк Сализбэрри, Хью Кордейт) [2002-2003 г., Документальный, природа, зоология, фау... skorpionN 11.95 GB
Показать сообщения:    

Текущее время: Сегодня 14:43

Часовой пояс: GMT



Вы не можете начинать темы
Вы не можете отвечать на сообщения
Вы не можете редактировать свои сообщения
Вы не можете удалять свои сообщения
Вы не можете голосовать в опросах
Вы не можете прикреплять файлы к сообщениям
Вы не можете скачивать файлы