Живые камни (Ожившая архитектура) / Living Stones [серии 1-10 из 23] (Валери Жирье) [2002-2005 г., Документальный, история, археология, SATRip]

 
Автор Сообщение

skorpionN ®

Пол:

Стаж: 1 год 8 месяцев

Сообщений: 578



Награды: 4 (Подробнее)

Mega Seeder 2 (Количество: 1) Mega Seeder 1 (Количество: 1) Mega Seeder 3 (Количество: 1)
Торрент-статистика

Создавать темы 27-Сен-2015 09:08

[Цитировать]

Живые камни (Ожившая архитектура) / Living Stones [серии 1-10 из 23]
Год выпуска: 2002-2005
Страна: Франция, Alpha Line Production
Жанр: Документальный, история, археология
Продолжительность: 10x~00:26:00
Перевод: Профессиональный (двухголосый), переведено и озвучено на производственной базе ТПО "Ред Медиа"
Режиссер: Валери Жирье, Гийом Эшт, Александр Мизар
Описание: Камень есть типичнейшее воплощение категории бытия как такового, и в отличие от гегелевского отвлеченного понятия о бытии он не обнаруживает никакой склонности к переходу в свое противоположное: камень есть то, что он есть, и он всегда служил символом неизменного бытия. Это серия фильмов об истории старинных городов, об открытиях, сделанных археологами на раскопках.
Документальный сериал рассказывает об археологических раскопках и неизвестных находках по всему миру. Зритель узнает историю, предшествующую их строительству. С помощью знаний, накопленных археологами и компьютерной графики, мы увидим древние памятники такими, какими они были в действительности. Этот фильм об экспедициях археологов в Грецию, Египет и на Ближний Восток.
Список серий:
01. Трансиордания. По следам Моисея и первых христиан / Transjordanie, Dans les pas de Moise
02. Делос. Меняющийся остров / Delos, Ile mouvante
03. Крепости крестоносцев в Трансиордании / Les chateaux croises de Transjordanie
04. Валюбилис. Романизированный город бербер / Volubilis, Une cite berbere romanisee
05. Дельфы. Книга гордости / Delphes, Le livvre d’orgueil
06. Мари. Рождение города на берегу Евфрата / Mari, Naissance d’une cite sur l’euphrate
07. Мари. Столица древнего царства / Mari, Metropole Royale
08. Фивы. Прелюдия к вечной жизни (1 часть) / Thebes, Prelude a une vie etenelle
09. Фивы. Путешествие в загробный мир (2 часть) / Thebes, Ballade danns l’ature monde
10. Гераса. Город на Золотой реке / Gerasa, Sur les rivers de la riverd’or

Доп. информация: информация о сериале взята на сайте http://www.guillaume-hecht.com/filmographie.ws
Из этого цикла:
Наследие цивилизаций / Civilizations Legacy
Камни раскрывают тайны / Dans Le Secret Des Pierres
Живые камни (Ожившая архитектура) / Living Stones
Качество: SATRip
Формат: AVI
Видео кодек: XviD
Аудио кодек: AC3
Видео: 720x400 25fps ~1900 Kbps
Аудио: AC3 2ch, 48kHz, 192 kbps

MediaInfo:

ormat : AVI
Format/Info : Audio Video Interleave
File size : 383 MiB
Duration : 25mn 35s
Overall bit rate : 2 095 Kbps
Writing application : TMPGEnc Video Mastering Works 5 Version. 5.0.6.38
Writing library : TMPGEnc Video Mastering Works 5 Version. 5.0.6.38
Video
ID : 0
Format : MPEG-4 Visual
Format profile : Advanced Simple@L5
Format settings, BVOP : 2
Format settings, QPel : No
Format settings, GMC : No warppoints
Format settings, Matrix : Default (H.263)
Muxing mode : Packed bitstream
Codec ID : XVID
Codec ID/Hint : XviD
Duration : 25mn 35s
Bit rate : 1 895 Kbps
Width : 720 pixels
Height : 400 pixels
Display aspect ratio : 16:9
Frame rate : 25.000 fps
Color space : YUV
Chroma subsampling : 4:2:0
Bit depth : 8 bits
Scan type : Progressive
Compression mode : Lossy
Bits/(Pixel*Frame) : 0.263
Stream size : 347 MiB (90%)
Writing library : XviD 73
Audio
ID : 1
Format : AC-3
Format/Info : Audio Coding 3
Mode extension : CM (complete main)
Format settings, Endianness : Big
Codec ID : 2000
Duration : 25mn 35s
Bit rate mode : Constant
Bit rate : 192 Kbps
Channel(s) : 2 channels
Channel positions : Front: L R
Sampling rate : 48.0 KHz
Bit depth : 16 bits
Compression mode : Lossy
Stream size : 35.1 MiB (9%)
Alignment : Aligned on interleaves
Interleave, duration : 240 ms (6.00 video frames)
Interleave, preload duration : 224 ms

Внимание! Раздача ведётся путём добавления новых выпусков

Внимание! Раздача ведётся путём добавления новых выпусков; при каждом добавлении создаётся новый торрент. Чтобы начать докачку нового выпуска, пользователям необходимо сделать следующее:
(1) остановить скачивание,
(2) удалить старый торрент у себя из клиента (старые серии удалять не надо),
(3) скачать новый торрент и запустить его у себя в клиенте вместо старого, при этом указать клиенту путь в старую папку куда и должно происходить скачивание новых выпусков.
Ваш клиент при этом должен произвести хеширование (проверку) старой папки (если не производит сам - помогите ему сделать это). В результате он будет докачивать только те выпуски, которых у Вас ещё нет. Старые выпуски при этом не удаляются, а продолжают раздаваться!
Eсли Вы уже удалили старые выпуски, то предотвратить их повторную закачку можно, сняв галочки в соответствующих местах при запуске нового торрента. По возможности, желательно не удалять старые выпуски как можно дольше, чтобы релизёр не только продолжал раздавать старые выпуски, но и смог сконцентрироваться на новых.
Добавлено
01. Трансиордания. По следам Моисея и первых христиан / Transjordanie, Dans les pas de Moise
02. Делос. Меняющийся остров / Delos, Ile mouvante
03. Крепости крестоносцев в Трансиордании / Les chateaux croises de Transjordanie


Последний раз редактировалось: skorpionN (2015-12-30 18:08), всего редактировалось 2 раз(а)
[Профиль] [ЛС]

skorpionN ®

Пол:

Стаж: 1 год 8 месяцев

Сообщений: 578



Награды: 4 (Подробнее)

Mega Seeder 3 (Количество: 1) Top Releaser 2 (Количество: 1) Mega Seeder 1 (Количество: 1)
Торрент-статистика

Создавать темы 29-Дек-2015 15:29 (спустя 3 месяца 2 дня)

[Цитировать]

Больше серий не показывали. Значит не купили. Это всё bn
[Профиль] [ЛС]
Показать сообщения:    

Текущее время: Сегодня 05:01

Часовой пояс: GMT



Вы не можете начинать темы
Вы не можете отвечать на сообщения
Вы не можете редактировать свои сообщения
Вы не можете удалять свои сообщения
Вы не можете голосовать в опросах
Вы не можете прикреплять файлы к сообщениям
Вы не можете скачивать файлы