Живые и мертвые / Zivi i mrtvi (Кристиян Милич / Kristijan Milic) [2007, Хорватия, Босния, драма, военный, хоррор, DVDRip] rus sub

 
Автор Сообщение

painkiller ®

Стаж: 2 года 3 месяца

Сообщений: 582



Награды: Нет

Торрент-статистика

Создавать темы 14-Авг-2014 13:00

[Цитировать]

Живые и мертвые / Živi i mrtvi
Страна: Хорватия, Босния
Жанр: драма, военный, хоррор
Год выпуска: 2007
Продолжительность: 01:27:41
Перевод: Субтитры Antonio Salazar
Cубтитры: русский
Оригинальная аудиодорожка: хорватский
Режиссер: Кристиян Милич / Kristijan Milić
В ролях: Филип Шовагович, Велибор Топич, Славен Кнезович, Маринко Прга
Описание: Зрителю рассказывается две истории, происходящие в одном и том же месте в боснийских горах, одна развивается в 1993 году во время хорватско-мусульманского противостояния, другая, произошедшая с дедом одного из героев - на полвека раньше в ходе ВМВ. Кроме реальных опасностей, солдат преследуют некие мистические угрозы, под конец становящиеся страшнее мусульманских пуль и ножей.
Сэмпл: http://multi-up.com/980982
Качество видео: DVDRip
Формат видео: AVI
Видео: XviD, 672x400 (1,680), 25 fps, 972 kbps
Аудио: MS Stereo, 48 kHz, 2 ch, 128 kbps
Формат субтитров: softsub (SRT)

Субтитры

1
00:00:10,560 --> 00:00:13,552
"Мы все мертвы,
2
00:00:13,760 --> 00:00:16,752
"и лишь стоим в очереди на похороны. "
3
00:00:16,960 --> 00:00:19,793
Иво Андрич.
4
00:01:33,080 --> 00:01:36,072
Боснийская война, 1993 год
5
00:01:39,973 --> 00:01:43,073
ЖИВЫЕ И МЁРТВЫЕ
6
00:01:59,320 --> 00:02:03,074
- Видишь как работает ТТ? - Срал я на твой ТТ!
7
00:02:03,720 --> 00:02:05,278
Вот сейчас так...
8
00:02:13,560 --> 00:02:15,198
Вы чем заняты?
9
00:02:15,320 --> 00:02:17,436
Вы не в бою, чтобы так палить.
10
00:02:17,560 --> 00:02:20,313
- Завтра будет боестолкновение! - Помолчи, жирный...
11
00:02:20,440 --> 00:02:22,237
Не ворчи, жирный.
12
00:02:22,680 --> 00:02:24,830
Совсем как старый дед!
13
00:02:25,920 --> 00:02:27,990
Ты куда пошел? Нельзя внутрь!
14
00:02:34,560 --> 00:02:36,437
Пусть идет к чертовой матери!
15
00:02:36,640 --> 00:02:38,949
А я думал, ты здесь начальник...
16
00:02:40,200 --> 00:02:42,509
Входи, Вялый.
17
00:02:44,160 --> 00:02:46,310
Садись. Иво, знакомься, Вялый.
18
00:02:46,480 --> 00:02:49,040
Я говорил тебе о нем.
19
00:02:50,200 --> 00:02:52,714
Иво будет вашим командиром.
20
00:02:55,000 --> 00:02:57,434
Как там наши? - Хорошо.

MediaInfo

Формат : AVI
Формат/Информация : Audio Video Interleave
Размер файла : 700 Мбайт
Продолжительность : 1 ч. 27 м.
Режим общего битрейта : Переменный
Общий поток : 1116 Кбит/сек
Программа кодирования : VirtualDubMod 1.5.4.1 (build 2178/release)
Библиотека кодирования : VirtualDubMod build 2178/release
Видео
Идентификатор : 0
Формат : MPEG-4 Visual
Профиль формата : Advanced Simple@L5
Параметр BVOP формата : 1
Параметр QPel формата : Нет
Параметр GMC формата : Без точки перехода
Параметр матрицы формата : Выборочная
Идентификатор кодека : XVID
Идентификатор кодека/Подсказка : XviD
Продолжительность : 1 ч. 27 м.
Битрейт : 972 Кбит/сек
Ширина : 672 пикселя
Высота : 400 пикселей
Соотношение сторон : 1,680
Частота кадров : 25,000 кадров/сек
Цветовое пространство : YUV
Субдискретизация насыщенности : 4:2:0
Битовая глубина : 8 бит
Тип развёртки : Прогрессивная
Метод сжатия : С потерями
Бит/(Пиксели*Кадры) : 0.145
Размер потока : 610 Мбайт (87%)
Библиотека кодирования : XviD 1.1.0 (UTC 2005-11-22)
Аудио
Идентификатор : 1
Формат : MPEG Audio
Версия формата : Version 1
Профиль формата : Layer 3
Режим : Joint stereo
Расширение режима : MS Stereo
Идентификатор кодека : 55
Идентификатор кодека/Подсказка : MP3
Продолжительность : 1 ч. 27 м.
Вид битрейта : Переменный
Битрейт : 128 Кбит/сек
Каналы : 2 канала
Частота : 48,0 КГц
Метод сжатия : С потерями
Размер потока : 82,1 Мбайт (12%)
Выравнивание : Соединение по промежуткам
Продолжительность промежутка : 24 мс. (0,60 видеокадр)
Время предзагрузки промежутка : 338 мс.
Библиотека кодирования : LAME3.96r
Настройки программы : -m j -V 4 -q 2 -lowpass 17.5 --abr 128

Скриншот c названием фильма

Скриншоты





[Профиль] [ЛС]

Создавать темы 06-Авг-2015 23:15 (спустя 11 месяцев 23 дня)

Топик был перенесен из форума Фильмы до 2014 года в форум Фильмы до 2012 года
sergej644
 
Показать сообщения:    

Текущее время: Сегодня 19:37

Часовой пояс: GMT



Вы не можете начинать темы
Вы не можете отвечать на сообщения
Вы не можете редактировать свои сообщения
Вы не можете удалять свои сообщения
Вы не можете голосовать в опросах
Вы не можете прикреплять файлы к сообщениям
Вы не можете скачивать файлы