Животный зов / Зов природы / Cattle Call (Мартин Гуйгуй / Martin Guigui) [2006, США, Комедия, DVDRip] DVO + Original Eng

 
Автор Сообщение

painkiller ®

Стаж: 2 года 10 месяцев

Сообщений: 582



Награды: Нет

Торрент-статистика

Создавать темы 14-Авг-2014 13:01

[Цитировать]

Животный зов / Зов природы / Cattle Call
Страна: США
Жанр: Комедия
Год выпуска: 2006
Продолжительность: 01:23:39
Перевод: Профессиональный (двухголосый закадровый)
Cубтитры: нет
Оригинальная аудиодорожка: английский
Режиссер: Мартин Гуйгуй / Martin Guigui
В ролях: Томас Иэн Николас, Дженни Моллен, Николь Эггерт, Дидрих Бадер, Челси Хэндлер, Джонатан Уинтерс, Пол Мазурски, Лиза Артуро, Танджарин Мартин
Описание: Трое приятелей придумывают оригинальный способ решить проблему знакомства с девушками. Они объявляют о наборе актрис для фильма, а сами представляются продюсерами. К ним выстраивается очередь из юных и не очень актрис, ведь сниматься в кино и стать звездами хотят все девушки. И ради этого они готовы на все!
Доп. информация: Релиз
Сэмпл: http://multi-up.com/968641
Качество видео: DVDRip
Формат видео: AVI
Видео: XviD build 50, 704x528 (1.33:1), 25 fps, 1749 kbps avg
Аудио: Rus AC3 Dolby Digital, 48 kHz, 3/2 (L,C,R,l,r) + LFE ch, 384.00 kbps avg
Аудио 2: Eng AC3 Dolby Digital, 48 kHz, 2/0 (L,R) ch, 192.00 kbps avg

MediaInfo

General
Complete name : D:\Zhivotnyj.zov.2006.XviD.DVDRip-Zanaves.avi
Format : AVI
Format/Info : Audio Video Interleave
File size : 1.37 GiB
Duration : 1h 23mn
Overall bit rate : 2 341 Kbps
Writing application : VirtualDubMod 1.5.10.2 (build 2540/release)
Writing library : VirtualDubMod build 2540/release
Video
ID : 0
Format : MPEG-4 Visual
Format profile : AdvancedSimple@L5
Format settings, BVOP : Yes
Format settings, QPel : No
Format settings, GMC : No warppoints
Format settings, Matrix : Default (MPEG)
Codec ID : XVID
Codec ID/Hint : XviD
Duration : 1h 23mn
Bit rate : 1 751 Kbps
Width : 704 pixels
Height : 528 pixels
Display aspect ratio : 4/3
Frame rate : 25.000 fps
Resolution : 24 bits
Colorimetry : 4:2:0
Scan type : Progressive
Bits/(Pixel*Frame) : 0.188
Stream size : 1.02 GiB (75%)
Writing library : XviD 1.2.1 (UTC 2008-12-04)
Audio #1
ID : 1
Format : AC-3
Format/Info : Audio Coding 3
Codec ID : 2000
Duration : 1h 23mn
Bit rate mode : Constant
Bit rate : 384 Kbps
Channel(s) : 6 channels
Channel positions : Front: L C R, Surround: L R, LFE
Sampling rate : 48.0 KHz
Stream size : 230 MiB (16%)
Alignment : Split accross interleaves
Interleave, duration : 40 ms (1.00 video frame)
Interleave, preload duration : 500 ms
Audio #2
ID : 2
Format : AC-3
Format/Info : Audio Coding 3
Codec ID : 2000
Duration : 1h 23mn
Bit rate mode : Constant
Bit rate : 192 Kbps
Channel(s) : 2 channels
Channel positions : L R
Sampling rate : 48.0 KHz
Stream size : 115 MiB (8%)
Alignment : Split accross interleaves
Interleave, duration : 40 ms (1.00 video frame)
Interleave, preload duration : 500 ms

Скриншоты

[Профиль] [ЛС]

Создавать темы 06-Авг-2015 23:14 (спустя 11 месяцев 23 дня)

Топик был перенесен из форума Фильмы до 2014 года в форум Фильмы до 2012 года
sergej644
 
Кто просматривает тему:

Форум Тема Автор Размер
BBC BBC: Мир природы. Тайная жизнь барсуков / Natural World. Badgers Secrets of the Sett [сезон 27 серия 7] (Тим Мартин / Tim Martin) [2008 г., Документальный, исследование, животные, природа, HDTVRip... skorpionN 1.15 GB
BBC BBC: Эти загадочные животные / Weird Nature [серии 1-6 из 6](John Downer) [2002 г., Документальный, фауна, HDTVRip-AVC 720p] skorpionN 5.32 GB
Viasat Nature Viasat Nature: Животный инстинкт / Wild Instinct [сезоны 2-3 серии 1-6 из 6] (Фитджеральд Джего) [2015 г., Документальный, природа, флора, фауна, SATRip] skorpionN 4.34 GB
Viasat Nature Viasat Nature: Животный инстинкт / Wild Instinct [сезоны: 2 3(3) 3 3(3)] (Фитджеральд Джего) [2015 г., Документальный, природа, флора, фауна, HDTVRip 720p] skorpionN 11.11 GB
Документальные HD Завоеватели мира животных / The Conquerors [серии 1-4 из 4] (Жером Сегюр, Николас Габриель, Винсент Амуру, Бруно Виктор-Пуджибет) [2012 г., Документальный, путешествие, исследование, фауна, HDTVRip... skorpionN 7.28 GB
Мультфильмы (48-60 fps) Тайная жизнь домашних животных / The Secret Life of Pets (2016) BDRip 1080p | 60 FPS | iTunes Russian Mafia 6.89 GB
3D Мультфильмы Тайная жизнь домашних животных / The Secret Life of Pets (2016) BDRip 1080p от Ash61 | 3D-Video | halfOU | iTunes Russian Mafia 7.97 GB
Зарубежные мультфильмы Тайная жизнь домашних животных / The Secret Life of Pets (2016) BDRip от GeneralFilm | iTunes Russian Mafia 1.41 GB
Показать сообщения:    

Текущее время: Сегодня 09:02

Часовой пояс: GMT



Вы не можете начинать темы
Вы не можете отвечать на сообщения
Вы не можете редактировать свои сообщения
Вы не можете удалять свои сообщения
Вы не можете голосовать в опросах
Вы не можете прикреплять файлы к сообщениям
Вы не можете скачивать файлы