Живая сталь / Real Steel (2011) BDRip 1080p от R.G. HD-Films | 60 fps

 
Автор Сообщение

BOSS ®

Пол:

Стаж: 2 года 2 месяца

Сообщений: 3751

Откуда: ODESSA



Награды: 20 (Подробнее)

Top Seeder 3 (Количество: 1) Mega Seeder 2 (Количество: 1) За внесенный вклад в развитие сайта (Количество: 1)
Торрент-статистика

Создавать темы 27-Мар-2016 15:59

[Цитировать]

-Название: Живая сталь
Оригинальное название: Real Steel
Год выпуска: 2011
Страна: США, Индия
Жанр: фантастика, боевик, семейный
Продолжительность: 02:06:50
Перевод: Dub, AVO, Original
Субтитры: русские (Форсированные), русские (Полные), русские (Комментарии), украинские (Форсированные), украинские (Полные), украинские (Комментарии), английские (Полные)-Режиссер: Шон Леви-В ролях: Хью Джекман (Charlie Kenton), Дакота Гойо (Max Kenton), Эванджелин Лилли (Bailey Tallet), Энтони Маки (Finn), Кевин Дюран (Ricky), Хоуп Дэвис (Aunt Debra), Джеймс Ребхорн (Marvin), Карл Юн (Tak Mashido), Ольга Фонда (Farra Lemkova), Джон Гэйтинс (Kingpin), Софи Леви (Big Sister), Тесс Леви (Little Sister)-Описание:
События фильма происходят в будущем, где бокс запрещен за негуманностью и заменен боями 2000-фунтовых роботов, управляемых людьми. Бывший боксер, а теперь промоутер, переметнувшийся в Робобокс, решает, что наконец нашел своего чемпиона, когда ему попадается выбракованный, но очень способный робот. Одновременно на жизненном пути героя возникает 11-летний парень, оказывающийся его сыном. И по мере того, как машина пробивает свой путь к вершине, обретшие друг друга отец и сын учатся дружить.-Рейтинг:

MPAA: PG-13 - Детям до 13 лет просмотр не желателен-Качество: BDRip 1080p 60fps
Формат: MKV
Видео: AVC, 1920x816 (2.35:1), 13698 kbps, 60 fps, 0,146 bpp
Аудио 1: русский / AC3 / 5.1 / 48 kHz / 640 kbps / 16 bit
Аудио 2: украинский / AC3 / 5.1 / 48 kHz / 640 kbps / 16 bit |Дубляж (Отдельно в папке)|
Аудио 3: русский / DTS / 5.1 / 48 kHz / 1510 kbps / 16 bit |Ю. Сербин (Отдельно в папке)|
Аудио 4: английский / DTS / 5.1 / 48 kHz / 1510 kbps / 16 bit |Оригинал (Отдельно в папке)|
Аудио 5: английский / AC3 / 2.0 / 48 kHz / 192 kbps / 16 bit |Ком. Шон Леви (Отдельно в папке)|
Навигация по главам: есть- -

ОтчетМедиаИнфо

General
Unique ID : 215049698372689944437148721804121405401 (0xA1C910BB9CD181CAA93EA01EFDB6F7D9)
Format : Matroska
Format version : Version 4 / Version 2
File size : 13.0 GiB
Duration : 2h 6mn
Overall bit rate mode : Variable
Overall bit rate : 14.6 Mbps
Movie name : Tiberiumsun69
Encoded date : UTC 2016-03-22 18:19:07
Writing application : mkvmerge v8.3.0 ('Over the Horizon') 64bit
Writing library : libebml v1.3.1 + libmatroska v1.4.2
DURATION : 01:57:26.539000000
NUMBER_OF_FRAMES : 1661
NUMBER_OF_BYTES : 59658
_STATISTICS_WRITING_APP : mkvmerge v8.3.0 ('Over the Horizon') 64bit
_STATISTICS_WRITING_DATE_UTC : 2016-03-22 18:19:07
_STATISTICS_TAGS : BPS DURATION NUMBER_OF_FRAMES NUMBER_OF_BYTES
Attachment : Yes / Yes
Video
ID : 1
Format : AVC
Format/Info : Advanced Video Codec
Format profile : High@L4.2
Format settings, CABAC : Yes
Format settings, ReFrames : 3 frames
Codec ID : V_MPEG4/ISO/AVC
Duration : 2h 6mn
Bit rate mode : Variable
Bit rate : 13.7 Mbps
Maximum bit rate : 15.0 Mbps
Width : 1 920 pixels
Height : 816 pixels
Display aspect ratio : 2.35:1
Frame rate : 60.000 fps
Standard : NTSC
Color space : YUV
Chroma subsampling : 4:2:0
Bit depth : 8 bits
Scan type : Progressive
Bits/(Pixel*Frame) : 0.146
Stream size : 12.1 GiB (94%)
Title : Tiberiumsun69
Language : English
Default : Yes
Forced : No
Color primaries : BT.709-5, BT.1361, IEC 61966-2-4, SMPTE RP177
Transfer characteristics : BT.709-5, BT.1361
Matrix coefficients : BT.709-5, BT.1361, IEC 61966-2-4 709, SMPTE RP177
Audio
ID : 2
Format : AC-3
Format/Info : Audio Coding 3
Mode extension : CM (complete main)
Codec ID : A_AC3
Duration : 2h 6mn
Bit rate mode : Constant
Bit rate : 640 Kbps
Channel(s) : 6 channels
Channel positions : Front: L C R, Side: L R, LFE
Sampling rate : 48.0 KHz
Bit depth : 16 bits
Compression mode : Lossy
Stream size : 581 MiB (4%)
Title : Дубляж
Language : Russian
Default : Yes
Forced : No
Text #1
ID : 3
Format : UTF-8
Codec ID : S_TEXT/UTF8
Codec ID/Info : UTF-8 Plain Text
Title : Форсированные
Language : Russian
Default : Yes
Forced : No
Text #2
ID : 4
Format : UTF-8
Codec ID : S_TEXT/UTF8
Codec ID/Info : UTF-8 Plain Text
Title : Полные
Language : Russian
Default : No
Forced : No
Text #3
ID : 5
Format : UTF-8
Codec ID : S_TEXT/UTF8
Codec ID/Info : UTF-8 Plain Text
Title : Комментарии
Language : Russian
Default : No
Forced : No
Text #4
ID : 6
Format : UTF-8
Codec ID : S_TEXT/UTF8
Codec ID/Info : UTF-8 Plain Text
Title : Форсированные
Language : Ukrainian
Default : No
Forced : No
Text #5
ID : 7
Format : UTF-8
Codec ID : S_TEXT/UTF8
Codec ID/Info : UTF-8 Plain Text
Title : Полные
Language : Ukrainian
Default : No
Forced : No
Text #6
ID : 8
Format : UTF-8
Codec ID : S_TEXT/UTF8
Codec ID/Info : UTF-8 Plain Text
Title : Комментарии
Language : Ukrainian
Default : No
Forced : No
Text #7
ID : 9
Format : UTF-8
Codec ID : S_TEXT/UTF8
Codec ID/Info : UTF-8 Plain Text
Title : Полные
Language : English
Default : No
Forced : No
Menu
00:00:00.000 : en:Opening Titles
00:03:00.472 : en:Charlie Kenton
00:10:38.304 : en:Wheeling & dealing
00:18:50.546 : en:Noisy Boy Has Arrived
00:24:29.885 : en:Crash Palace
00:34:14.761 : en:Metal Valley
00:41:22.355 : en:Atom
00:48:46.131 : en:He Was Beautiful
00:52:08.709 : en:The Champ Is Here
00:57:15.015 : en:The Zoo
01:05:01.231 : en:Training Atom
01:12:33.974 : en:Climbing The Ranks
01:18:26.994 : en:Twin Cities
01:26:28.517 : en:Fight For Me
01:32:50.773 : en:Go Get Him, Charlie
01:39:19.704 : en:The Mighty Zeus
01:48:22.663 : en:Toe-To-Toe
01:52:26.865 : en:Final Round
01:57:21.868 : en:People's Champion
02:00:50.326 : en:End Credits

Скриншоты

Просьба к переливающим на другие сайты, в оформлении указывайте пожалуйста авторство группы
[Профиль] [ЛС]
Показать сообщения:    

Текущее время: Сегодня 18:50

Часовой пояс: GMT



Вы не можете начинать темы
Вы не можете отвечать на сообщения
Вы не можете редактировать свои сообщения
Вы не можете удалять свои сообщения
Вы не можете голосовать в опросах
Вы не можете прикреплять файлы к сообщениям
Вы не можете скачивать файлы