Живая сталь / Real Steel (2011) BDRip 1080p

 
Автор Сообщение

sergej644 ®

Пол:

Стаж: 4 года 11 месяцев

Сообщений: 6040

Откуда: Soviet Union



Награды: Нет

Торрент-статистика

Создавать темы 21-Янв-2015 01:01

[Цитировать]

Информация о фильме
Название: Живая сталь
Оригинальное название: Real Steel
Год выхода: 2011
Жанр: фантастика, боевик, семейный
Режиссер: Шон Леви
Продюсер: Роберт Земекис, Шон Леви, Стивен Спилберг
В ролях: Хью Джекман, Дакота Гойо, Эванджелин Лилли, Энтони Маки, Кевин Дюран, Хоуп Дэвис, Джеймс Ребхорн, Марко Руджери, Карл Йун, Ольга Фонда
О фильме:
События фильма происходят в будущем, где бокс запрещен за негуманностью и заменен боями 2000-фунтовых роботов, управляемых людьми. Бывший боксер, а теперь промоутер, переметнувшийся в Робобокс, решает, что наконец нашел своего чемпиона, когда ему попадается выбракованный, но очень способный робот. Одновременно на жизненном пути героя возникает 11-летний пацан, оказывающийся его сыном. И по мере того, как машина пробивает свой путь к вершине, обретшие друг друга отец и сын учатся дружить.

Выпущено: США, Индия
Студия: Walt Disney Studios, Motion Pictures
Продолжительность: 02:06:50
Перевод: Дублированный + Оригинал
Файл
Кодек: x264
Качество: BDRip (источник: Blu-ray Disc)
Видео: 1920x816 (2,35:1), 23.976 fps, 7688 kbps
Аудио #1: AC-3, 6 ch, 640 kbps (Rus)
Аудио #2: AC-3, 6 ch, 640 kbps (Eng)
Субтитры: Русские (Forced), Русские, Английские
Скачать: семпл

Скриншоты

MI

Общее
Уникальный идентификатор : 201557789590851901593129624958810332048 (0x97A29E459DA3242BA293565C02AE1B90)
Полное имя : E:Real.Steel.2011.BDRip.1080p.Rus.Eng.mkv
Формат : Matroska
Версия формата : Version 4 / Version 2
Размер файла : 7,95 Гбайт
Продолжительность : 2 ч. 6 м.
Общий поток : 8970 Кбит/сек
Название фильма : Живая сталь / Real Steel (2011)
Дата кодирования : UTC 2013-07-04 18:05:03
Программа кодирования : mkvmerge v6.3.0 ('You can't stop me!') built on Jun 28 2013 20:09:41
Библиотека кодирования : libebml v1.3.0 + libmatroska v1.4.0
Видео
Идентификатор : 1
Формат : AVC
Формат/Информация : Advanced Video Codec
Профиль формата : High@L4.1
Параметр CABAC формата : Да
Параметр ReFrames формата : 5 кадров
Идентификатор кодека : V_MPEG4/ISO/AVC
Продолжительность : 2 ч. 6 м.
Битрейт : 7688 Кбит/сек
Ширина : 1920 пикселей
Высота : 816 пикселей
Соотношение сторон : 2,35:1
Режим частоты кадров : Постоянный
Частота кадров : 23,976 кадра/сек
Цветовое пространство : YUV
Субдискретизация насыщенности : 4:2:0
Битовая глубина : 8 бит
Тип развёртки : Прогрессивная
Бит/(Пиксели*Кадры) : 0.205
Размер потока : 6,66 Гбайт (84%)
Заголовок : Release by N1NT3NDO
Библиотека кодирования : x264 core 133 r2334 a3ac64b
Настройки программы : cabac=1 / ref=5 / deblock=1:-3:-3 / analyse=0x3:0x113 / me=umh / subme=10 / psy=1 / psy_rd=1.00:0.00 / mixed_ref=1 / me_range=32 / chroma_me=1 / trellis=2 / 8x8dct=1 / cqm=0 / deadzone=21,11 / fast_pskip=0 / chroma_qp_offset=-2 / threads=12 / lookahead_threads=1 / sliced_threads=0 / nr=0 / decimate=0 / interlaced=0 / bluray_compat=0 / constrained_intra=0 / bframes=5 / b_pyramid=2 / b_adapt=2 / b_bias=0 / direct=2 / weightb=1 / open_gop=0 / weightp=2 / keyint=240 / keyint_min=23 / scenecut=40 / intra_refresh=0 / rc_lookahead=80 / rc=2pass / mbtree=1 / bitrate=7688 / ratetol=1.0 / qcomp=0.60 / qpmin=0 / qpmax=69 / qpstep=4 / cplxblur=20.0 / qblur=0.5 / ip_ratio=1.40 / aq=1:0.70
Язык : English
Default : Да
Forced : Нет
Аудио #1
Идентификатор : 2
Формат : AC-3
Формат/Информация : Audio Coding 3
Расширение режима : CM (complete main)
Параметр Endianness формата : Big
Идентификатор кодека : A_AC3
Продолжительность : 2 ч. 6 м.
Вид битрейта : Постоянный
Битрейт : 640 Кбит/сек
Каналы : 6 каналов
Расположение каналов : Front: L C R, Side: L R, LFE
Частота : 48,0 КГц
Битовая глубина : 16 бит
Метод сжатия : С потерями
Размер потока : 581 Мбайт (7%)
Заголовок : Rus
Язык : Russian
Default : Да
Forced : Нет
Аудио #2
Идентификатор : 3
Формат : AC-3
Формат/Информация : Audio Coding 3
Расширение режима : CM (complete main)
Параметр Endianness формата : Big
Идентификатор кодека : A_AC3
Продолжительность : 2 ч. 6 м.
Вид битрейта : Постоянный
Битрейт : 640 Кбит/сек
Каналы : 6 каналов
Расположение каналов : Front: L C R, Side: L R, LFE
Частота : 48,0 КГц
Битовая глубина : 16 бит
Метод сжатия : С потерями
Размер потока : 581 Мбайт (7%)
Заголовок : Eng
Язык : English
Default : Нет
Forced : Нет
Текст #1
Идентификатор : 4
Формат : UTF-8
Идентификатор кодека : S_TEXT/UTF8
Идентификатор кодека/Информация : UTF-8 Plain Text
Заголовок : Rus (Forced)
Язык : Russian
Default : Нет
Forced : Нет
Текст #2
Идентификатор : 5
Формат : UTF-8
Идентификатор кодека : S_TEXT/UTF8
Идентификатор кодека/Информация : UTF-8 Plain Text
Заголовок : Rus
Язык : Russian
Default : Нет
Forced : Нет
Текст #3
Идентификатор : 6
Формат : UTF-8
Идентификатор кодека : S_TEXT/UTF8
Идентификатор кодека/Информация : UTF-8 Plain Text
Заголовок : Eng
Язык : English
Default : Нет
Forced : Нет
Меню
00:00:00.000 : :Chapter 01
00:03:00.471 : :Chapter 02
00:10:38.304 : :Chapter 03
00:18:50.546 : :Chapter 04
00:24:29.885 : :Chapter 05
00:34:14.761 : :Chapter 06
00:41:22.354 : :Chapter 07
00:48:46.131 : :Chapter 08
00:52:08.708 : :Chapter 09
00:57:15.014 : :Chapter 10
01:05:01.230 : :Chapter 11
01:12:33.974 : :Chapter 12
01:18:26.993 : :Chapter 13
01:26:28.516 : :Chapter 14
01:32:50.773 : :Chapter 15
01:39:19.703 : :Chapter 16
01:48:22.662 : :Chapter 17
01:52:26.865 : :Chapter 18
01:57:21.868 : :Chapter 19
02:00:50.326 : :Chapter 20
02:06:50.394 : :Chapter 21

x264

x264 [info]: frame I:1650 Avg QP:16.42 size:249601
x264 [info]: frame P:49495 Avg QP:20.01 size: 73865
x264 [info]: frame B:131328 Avg QP:22.51 size: 24714
[Профиль] [ЛС]
Показать сообщения:    

Текущее время: Сегодня 08:46

Часовой пояс: GMT



Вы не можете начинать темы
Вы не можете отвечать на сообщения
Вы не можете редактировать свои сообщения
Вы не можете удалять свои сообщения
Вы не можете голосовать в опросах
Вы не можете прикреплять файлы к сообщениям
Вы не можете скачивать файлы