Живая мертвечина / Braindead (Питер Джексон) [1992 г., ужасы, фэнтези, комедия, BDRip-AVC] [MVO, AVO]

 
Author Message

Bathory ®

Gender:

Longevity: 3 years 1 month

Posts: 320



: 3 ()

Girls (1) За внесенный вклад в развитие сайта (1) Друг (1)
Торрент-статистика

Post 10-Aug-2017 08:24

[Quote]

Живая мертвечина / Braindead- Информация о фильме
Название: Живая мертвечина
Оригинальное название: Braindead / Dead Alive
Год выхода: 1992
Жанр: ужасы, фэнтези, комедия
Режиссер: Питер Джексон
В ролях: Тимоти Бальм, Диана Пеньяльвер, Элизабет Муди, Йен Уаткин, Бренда Кендалл, Стюарт Девени, Джед Брофи, Стефен Паппс, Мюррэй Кин, Гленис Левестам
О фильме:
1957 год. С острова Суматра вывезена обезьяна, из-за одного укуса которой туземцы отрубили зоологу, приехавшему ее отловить, обе руки, а затем и голову. Уже в наше время эта тварь укусила злобную мамашу нашего героя, которая не дает ему встречаться с любимой девушкой. Последствия укуса ужасны, картину постепенно населяют жуткие зомби…

Страна: Новая Зеландия
Студия: WingNut Films, New Zealand Film Commission, Avalon/NFU Studios
Продолжительность: 01:37:15
Перевод:
1. Профессиональный (многоголосый закадровый)
2. Авторский (одноголосый закадровый) - Дмитрий "Goblin" Пучков
3. Авторский (одноголосый закадровый) - Константин Филонов
4. Авторский (одноголосый закадровый) - Юрий Живов
5. Авторский (одноголосый закадровый) - Андрей Гаврилов
6. Авторский (одноголосый закадровый) - Сергей Визгунов
7. Авторский (одноголосый закадровый) - Андрей Дольский
Файл
Кодек: AVC
Качество: BDRip |BDRemux 1080p|
Видео: 1040x584, 3153 kbps, 23,976 fps, 0,217 Bits/(Pixel*Frame)
Звук: AC3, 48 kHz, 2 ch, 192 kbps - все дорожки
Субтитры: русские (Д.Пучков), русские (Е. Клавдиенко), английские, английские SDH

MI

Общее
Unique ID : 190959879899930428902668674645101532160 (0x8FA988FB80050C9FB4A1ACA95B6E5400)
Complete name : E:\Braindead.1992.BDRip-AVC.MegaPeer.mkv
Format : Matroska
Format version : Version 4 / Version 2
File size : 3,06 Гбайт
Duration : 1 ч. 37 м.
Overall bit rate : 4497 Кбит/сек
Encoded date : UTC 2017-08-10 08:00:04
Writing application : mkvmerge v14.0.0 ('Flow') 64bit
Writing library : libebml v1.3.4 + libmatroska v1.4.5
Видео
ID : 1
Format : AVC
Format/Info : Advanced Video Codec
Format profile : High@L4.1
Format settings, CABAC : Да
Format settings, RefFrames : 11 кадров
Codec ID : V_MPEG4/ISO/AVC
Duration : 1 ч. 37 м.
Bit rate : 3153 Кбит/сек
Width : 1040 пикселей
Height : 584 пикселя
Display aspect ratio : 16:9
Frame rate mode : Постоянный
Frame rate : 23,976 (24000/1001) кадра/сек
Color space : YUV
Chroma subsampling : 4:2:0
Bit depth : 8 бит
Scan type : Прогрессивная
Bits/(Pixel*Frame) : 0.217
Stream size : 2,14 Гбайт (70%)
Writing library : x264 core 152 r2851 ba24899
Encoding settings : cabac=1 / ref=11 / deblock=1:-2:-2 / analyse=0x3:0x113 / me=umh / subme=11 / psy=1 / psy_rd=1.14:0.20 / mixed_ref=1 / me_range=48 / chroma_me=1 / trellis=2 / 8x8dct=1 / cqm=0 / deadzone=21,11 / fast_pskip=0 / chroma_qp_offset=-3 / threads=12 / lookahead_threads=3 / sliced_threads=0 / nr=0 / decimate=0 / interlaced=0 / bluray_compat=0 / constrained_intra=0 / bframes=14 / b_pyramid=2 / b_adapt=2 / b_bias=0 / direct=3 / weightb=1 / open_gop=0 / weightp=2 / keyint=240 / keyint_min=23 / scenecut=0 / intra_refresh=0 / rc_lookahead=60 / rc=2pass / mbtree=1 / bitrate=3153 / ratetol=1.0 / qcomp=0.60 / qpmin=0 / qpmax=51 / qpstep=4 / cplxblur=15.0 / qblur=0.5 / vbv_maxrate=50000 / vbv_bufsize=62500 / nal_hrd=none / filler=0 / ip_ratio=1.40 / aq=2:1.00
Default : Да
Forced : Нет
Аудио #1
ID : 2
Format : AC-3
Format/Info : Audio Coding 3
Format settings, Endianness : Big
Codec ID : A_AC3
Duration : 1 ч. 37 м.
Bit rate mode : Постоянный
Bit rate : 192 Кбит/сек
Channel(s) : 2 канала
Channel positions : Front: L R
Sampling rate : 48,0 КГц
Frame rate : 31,250 кадров/сек (1536 SPF)
Bit depth : 16 бит
Compression mode : С потерями
Stream size : 133 Мбайт (4%)
Title : MVO
Language : Russian
Service kind : Complete Main
Default : Да
Forced : Нет
Аудио #2
ID : 3
Format : AC-3
Format/Info : Audio Coding 3
Format settings, Endianness : Big
Codec ID : A_AC3
Duration : 1 ч. 37 м.
Bit rate mode : Постоянный
Bit rate : 192 Кбит/сек
Channel(s) : 2 канала
Channel positions : Front: L R
Sampling rate : 48,0 КГц
Frame rate : 31,250 кадров/сек (1536 SPF)
Bit depth : 16 бит
Compression mode : С потерями
Stream size : 134 Мбайт (4%)
Title : Goblin
Language : Russian
Service kind : Complete Main
Default : Нет
Forced : Нет
Аудио #3
ID : 4
Format : AC-3
Format/Info : Audio Coding 3
Format settings, Endianness : Big
Codec ID : A_AC3
Duration : 1 ч. 37 м.
Bit rate mode : Постоянный
Bit rate : 192 Кбит/сек
Channel(s) : 2 канала
Channel positions : Front: L R
Sampling rate : 48,0 КГц
Frame rate : 31,250 кадров/сек (1536 SPF)
Bit depth : 16 бит
Compression mode : С потерями
Stream size : 134 Мбайт (4%)
Title : Filonov
Language : Russian
Service kind : Complete Main
Default : Нет
Forced : Нет
Аудио #4
ID : 5
Format : AC-3
Format/Info : Audio Coding 3
Format settings, Endianness : Big
Codec ID : A_AC3
Duration : 1 ч. 37 м.
Bit rate mode : Постоянный
Bit rate : 192 Кбит/сек
Channel(s) : 2 канала
Channel positions : Front: L R
Sampling rate : 48,0 КГц
Frame rate : 31,250 кадров/сек (1536 SPF)
Bit depth : 16 бит
Compression mode : С потерями
Stream size : 133 Мбайт (4%)
Title : Zhivov
Language : Russian
Service kind : Complete Main
Default : Нет
Forced : Нет
Аудио #5
ID : 6
Format : AC-3
Format/Info : Audio Coding 3
Format settings, Endianness : Big
Codec ID : A_AC3
Duration : 1 ч. 37 м.
Bit rate mode : Постоянный
Bit rate : 192 Кбит/сек
Channel(s) : 2 канала
Channel positions : Front: L R
Sampling rate : 48,0 КГц
Frame rate : 31,250 кадров/сек (1536 SPF)
Bit depth : 16 бит
Compression mode : С потерями
Stream size : 133 Мбайт (4%)
Title : Gavrilov
Language : Russian
Service kind : Complete Main
Default : Нет
Forced : Нет
Аудио #6
ID : 7
Format : AC-3
Format/Info : Audio Coding 3
Format settings, Endianness : Big
Codec ID : A_AC3
Duration : 1 ч. 37 м.
Bit rate mode : Постоянный
Bit rate : 192 Кбит/сек
Channel(s) : 2 канала
Channel positions : Front: L R
Sampling rate : 48,0 КГц
Frame rate : 31,250 кадров/сек (1536 SPF)
Bit depth : 16 бит
Compression mode : С потерями
Stream size : 133 Мбайт (4%)
Title : Vizgunov
Language : Russian
Service kind : Complete Main
Default : Нет
Forced : Нет
Аудио #7
ID : 8
Format : AC-3
Format/Info : Audio Coding 3
Format settings, Endianness : Big
Codec ID : A_AC3
Duration : 1 ч. 37 м.
Bit rate mode : Постоянный
Bit rate : 192 Кбит/сек
Channel(s) : 2 канала
Channel positions : Front: L R
Sampling rate : 48,0 КГц
Frame rate : 31,250 кадров/сек (1536 SPF)
Bit depth : 16 бит
Compression mode : С потерями
Stream size : 134 Мбайт (4%)
Title : Dolsky
Language : Russian
Service kind : Complete Main
Default : Нет
Forced : Нет
Текст #1
ID : 9
Format : UTF-8
Codec ID : S_TEXT/UTF8
Codec ID/Info : UTF-8 Plain Text
Duration : 1 ч. 33 м.
Bit rate : 43 бит/сек
Count of elements : 759
Stream size : 29,5 Кбайт (0%)
Title : Дмитрий 'Goblin' Пучков
Language : Russian
Default : Нет
Forced : Нет
Текст #2
ID : 10
Format : UTF-8
Codec ID : S_TEXT/UTF8
Codec ID/Info : UTF-8 Plain Text
Duration : 1 ч. 33 м.
Bit rate : 45 бит/сек
Count of elements : 551
Stream size : 31,5 Кбайт (0%)
Title : Егений Клавдиенко
Language : Russian
Default : Нет
Forced : Нет
Текст #3
ID : 11
Format : UTF-8
Codec ID : S_TEXT/UTF8
Codec ID/Info : UTF-8 Plain Text
Duration : 1 ч. 32 м.
Bit rate : 25 бит/сек
Count of elements : 639
Stream size : 17,2 Кбайт (0%)
Language : English
Default : Нет
Forced : Нет
Текст #4
ID : 12
Format : UTF-8
Codec ID : S_TEXT/UTF8
Codec ID/Info : UTF-8 Plain Text
Duration : 1 ч. 32 м.
Bit rate : 30 бит/сек
Count of elements : 885
Stream size : 21,0 Кбайт (0%)
Title : SDH
Language : English
Default : Да
Forced : Нет
Меню
00:00:00.000 : en:00:00:00.000
00:06:28.430 : en:00:06:28.430
00:10:13.029 : en:00:10:13.029
00:13:35.231 : en:00:13:35.231
00:16:51.844 : en:00:16:51.844
00:19:44.850 : en:00:19:44.850
00:22:25.844 : en:00:22:25.844
00:25:12.261 : en:00:25:12.261
00:27:49.459 : en:00:27:49.459
00:29:28.809 : en:00:29:28.809
00:36:54.087 : en:00:36:54.087
00:40:26.966 : en:00:40:26.966
00:43:44.580 : en:00:43:44.580
00:49:37.099 : en:00:49:37.099
00:52:44.036 : en:00:52:44.036
00:55:33.455 : en:00:55:33.455
01:00:45.225 : en:01:00:45.225
01:06:59.849 : en:01:06:59.849
01:09:46.015 : en:01:09:46.015
01:15:33.946 : en:01:15:33.946
01:21:47.111 : en:01:21:47.111
01:23:07.065 : en:01:23:07.065
01:27:04.428 : en:01:27:04.428
01:34:00.051 : en:01:34:00.051

Скриншоты

Релиз:
[Profile] [PM]
Кто просматривает тему:

Forum Topic Author Size
Флора и фауна [BBC] Британские времена года / The Great British Year [Серии 1-4 из 4х] (James Brickell / Джеймс Брикл) [2013, Научно-популярный, живая природа, HDTVRip] VO (CSS) [+ Original (Eng) + SUB RUS, SUB... reversefile 4.36 GB
Документальные HD Британские времена года / The Great British Year (James Brickell / Джеймс Брикл) [2013, Великобритания, BBC, Документальный, научно-популярный, живая природа, HDTVRip 720p] VO (Омикрон) + VO (CSS) +... TorrentFilm 6.44 GB
Отечественные мультфильмы Живая вода (Владимир Самсонов) [1977, Рисованный мультфильм, WEBRip] TorrentFilm 139 MB
Фильмы (HD Rips | 720p, 1080p) Живая вода / Das Wasser des Lebens (2017) HDTVRip 720p | P Swager 1.46 GB
Фильмы до 2000 года Живая мертвечина / Braindead (1992) BDRip-AVC от ExKinoRay DOMINION 746 MB
Фильмы (HD DVD, Blu-ray и BDRemux) Живая плоть / Carne trémula (1997) BDRemux 1080p | P2 BOSS 20.78 GB
Фильмы (HD Rips | 720p, 1080p) Живая сталь / Real Steel (2011) BDRip 1080 | D, A Swager 16.17 GB
Фильмы (HD Rips | 720p, 1080p) Живая сталь / Real Steel (2011) BDRip 1080p sergej644 7.95 GB
Display posts from previous:    

The time now is: Today 11:08

All times are GMT



You cannot post new topics in this forum
You cannot reply to topics in this forum
You cannot edit your posts in this forum
You cannot delete your posts in this forum
You cannot vote in polls in this forum
You cannot attach files in this forum
You cannot download files in this forum