Жестяной кубок / Tin cup (1996) HDTVRip [720p] AVO

 
Автор Сообщение

sergej644 ®

Пол:

Стаж: 4 года 11 месяцев

Сообщений: 6039

Откуда: Soviet Union



Награды: Нет

Торрент-статистика

Создавать темы 12-Ноя-2014 09:45

[Цитировать]

-Жестяной кубок / Tin cup (1996) HDTVRip [720p] AVO-Год выпуска: 1996
Жанр: Драма, Мелодрама, Комедия, Спорт
Описание фильма:
Бывший спортсмен отлично играющий в гольф в настоящее время остался у разбитого корыта. Все не ладится в его жизни. Денежные проблемы заставляют его подрабатывать учителем игры в гольф. И у него появляется надежда осуществить мечту жизни: выиграть кубок на престижных соревнованиях в гольф. В этом ему помогает девушка, она придает ему уверенность в победе..
Режиссер: Рон Шелтон
Актеры: Кевин Костнер,Рене Руссо, Дон Джонсон, Чич Марин, Линда Харт, Деннис Бёркли, Рекс Линн, Лу Майерс, Ричард Лайнбэк, Джордж Перес, Мики Джонс, Майкл Милхоун, Лэнс Барроу, Майк Ритц, Джимми Робертс, Джордж Майкл (II), Крис Анчира, Шэрин МакКриди, Сьюзэн А. Кебрал, Дель Рой, Санфорд Гиббонс, Ирина Гасанова, Билл Каплан, Шарон Костнер, Билл Костнер, Джо Костнер.
Продолжительность: 02:14:00
Качество видео: HDTVRip(720р)
Перевод: Авторский одноголосый закадровый (В.Горчаков)

Видеокодек: MPEG-4 AVC/H.264
Битрейт видео: ~5750 Кбит/сек
Размер кадра: 1280 х 542
Аудиокодек: AC-3 2 ch
Битрейт аудио: 192 Кбит/сек

Интересное:

Перед съёмками фильма Кевин Костнер продолжительное время брал уроки гольфа и многие из ударов в фильме он выполнял самостоятельно. Натурные съёмки фильма прошли в одном из американских гольф-клубов Tubac Arizona.
Финальная сцена, в которой главный герой из принципа пытается выполнить сложнейший удар и затрачивает на это 12 попыток, частично основана на реальных событиях.
Награды:
• Золотой глобус, 1997 год
Номинация: Лучшая мужская роль (комедия или мюзикл) (Кевин Костнер)

MediaInfo:

Полное имя: Жестяной Кубок(1996-МелКом, Костнер, АП-Горчаков)-HDTVRip(720p)-AVO.mkv
Формат : Matroska
Версия формата : Version 4 / Version 2
Размер файла : 5,59 Гбайт
Продолжительность : 2 ч. 14 м.
Общий поток : 5942 Кбит/сек
Дата кодирования : UTC 2014-11-09 14:24:23
Программа кодирования : mkvmerge v6.9.1 ('Blue Panther') 64bit built on Apr 18 2014 18:23:38
Библиотека кодирования : libebml v1.3.0 + libmatroska v1.4.1
Видео
Идентификатор : 1
Формат : AVC
Формат/Информация : Advanced Video Codec
Профиль формата : [url=mailto:High@L4.1]High@L4.1[/url]
Параметр CABAC формата : Да
Параметр ReFrames формата : 11 кадров
Идентификатор кодека : V_MPEG4/ISO/AVC
Продолжительность : 2 ч. 14 м.
Битрейт : 5750 Кбит/сек
Ширина : 1280 пикселей
Высота : 542 пикселя
Соотношение сторон : 2,35:1
Режим частоты кадров : Постоянный
Частота кадров : 23,976 кадра/сек
Цветовое пространство : YUV
Субдискретизация насыщенности : 4:2:0
Битовая глубина : 8 бит
Тип развёртки : Прогрессивная
Бит/(Пиксели*Кадры) : 0.346
Размер потока : 5,30 Гбайт (95%)
Библиотека кодирования : x264 core 120 r2120 0c7dab9
Аудио
Идентификатор : 2
Формат : AC-3
Формат/Информация : Audio Coding 3
Расширение режима : CM (complete main)
Параметр Endianness формата : Big
Идентификатор кодека : A_AC3
Продолжительность : 2 ч. 14 м.
Вид битрейта : Постоянный
Битрейт : 192 Кбит/сек
Каналы : 2 канала
Расположение каналов : Front: L R
Частота : 48,0 КГц
Битовая глубина : 16 бит
Метод сжатия : С потерями
Размер потока : 185 Мбайт (3%)
Заголовок : АП - Горчаков
Язык : Russian
Default : Да
Forced : Нет
-Скриншоты: -Время раздачи: до 10 скачавших с 10:00 до 22:00
[Профиль] [ЛС]
Кто просматривает тему:

Показать сообщения:    

Текущее время: Сегодня 16:35

Часовой пояс: GMT



Вы не можете начинать темы
Вы не можете отвечать на сообщения
Вы не можете редактировать свои сообщения
Вы не можете удалять свои сообщения
Вы не можете голосовать в опросах
Вы не можете прикреплять файлы к сообщениям
Вы не можете скачивать файлы