Жестокое и необычное / Cruel & Unusual (2014) BDRip | L1

 
Автор Сообщение

BOSS ®

Пол:

Стаж: 2 года 9 месяцев

Сообщений: 6408

Откуда: ODESSA



Награды: 20 (Подробнее)

Top Releaser 3 (Количество: 1) Top Releaser 2 (Количество: 1) Top Keeper 3 (Количество: 1)
Торрент-статистика

Создавать темы 18-Авг-2015 17:19

[Цитировать]

Оригинальное название: Cruel & Unusual
Название: Жестокое и необычное
Жанр: Фантастика, триллер
Режиссёр: Мерлин Дервисевич
Год: 2014
В ролях: Дэвид Ричмонд-Пек, Мишель Харрисон, Кайл Кэсси, Мэри Блэк, Майкл Эклунд, Ричард Хэрмон, Энди Томпсон, Джон Хэйнсуорт

..Однажды мужчина по имени Эдгар - оказался в загадочном месте, а на его руке была странная татуировка, которая гласила, что он - убийца. Это место оказалось загробным миром - чистилищем, в котором группа таких же грешников, как и Эдгар, вынуждена вновь и вновь обсуждать свои преступления. Однако Эдгар не может смириться с тем, что он теперь покойник. К тому же он не верит в то, что убил свою жену. Наоборот - Эдгар винит ее в своей смерти. Сможет ли он осознать свою вину и смириться с этим?
Страна: Канада
Продолжительность: 01:32:00
Перевод: Любительский одноголосый закадровый (ХихиДок)
Кодек: XviD build 50
Контейнер: AVI
Качество: BDRip
Видео: 720x304 (2.37:1), 23.976 fps, ~1874 kbps avg, 0.36 bit/pixel
Звук: 48 kHz, AC3 Dolby Digital, 2/0 (L,R) ch, ~192 kbps
Субтитры: Отсутствуют
-

Mediainfo:

Полное имя : Жестокое и необычное Cruel & UnusualZjeztokoe i neobychnoe. 2014..avi
Формат : AVI
Формат/Информация : Audio Video Interleave
Размер файла : 1,33 Гбайт
Продолжительность : 1 ч. 32 м.
Общий поток : 2076 Кбит/сек
Программа кодирования : VirtualDubMod 1.5.10.3 | www.virtualdub-fr.org || (build 2550/release)
Библиотека кодирования : VirtualDubMod build 2550/release
Видео
Идентификатор : 0
Формат : MPEG-4 Visual
Профиль формата : Advanced Simple@L5
Параметр BVOP формата : 1
Параметр QPel формата : Нет
Параметр GMC формата : Без точки перехода
Параметр матрицы формата : Default (MPEG)
Идентификатор кодека : XVID
Идентификатор кодека/Подсказка : XviD
Продолжительность : 1 ч. 32 м.
Битрейт : 1875 Кбит/сек
Ширина : 720 пикселей
Высота : 304 пикселя
Соотношение сторон : 2,35:1
Частота кадров : 23,976 кадра/сек
Цветовое пространство : YUV
Субдискретизация насыщенности : 4:2:0
Битовая глубина : 8 бит
Тип развёртки : Прогрессивная
Метод сжатия : С потерями
Бит/(Пиксели*Кадры) : 0.357
Размер потока : 1,20 Гбайт (90%)
Библиотека кодирования : XviD 1.2.1 (UTC 2008-12-04)
Аудио
Идентификатор : 1
Формат : AC-3
Формат/Информация : Audio Coding 3
Расширение режима : CM (complete main)
Параметр Endianness формата : Big
Идентификатор кодека : 2000
Продолжительность : 1 ч. 32 м.
Вид битрейта : Постоянный
Битрейт : 192 Кбит/сек
Каналы : 2 канала
Расположение каналов : Front: L R
Частота : 48,0 КГц
Битовая глубина : 16 бит
Метод сжатия : С потерями
Размер потока : 126 Мбайт (9%)
Выравнивание : Разделение по промежуткам
Продолжительность промежутка : 42 мс. (1,00 видеокадр)
Время предзагрузки промежутка : 500 мс.
- --
[Профиль] [ЛС]
Показать сообщения:    

Текущее время: Сегодня 16:48

Часовой пояс: GMT



Вы не можете начинать темы
Вы не можете отвечать на сообщения
Вы не можете редактировать свои сообщения
Вы не можете удалять свои сообщения
Вы не можете голосовать в опросах
Вы не можете прикреплять файлы к сообщениям
Вы не можете скачивать файлы