Жертвуя пешкой / Pawn Sacrifice (2014) BDRip 1080p | iTunes

 
Автор Сообщение

достали все ®

Пол:

Стаж: 1 год 8 месяцев

Сообщений: 6600



Награды: 12 (Подробнее)

Mega Seeder 3 (Количество: 1) Top Releaser 4 (Количество: 1) Mega Seeder 2 (Количество: 1)
Торрент-статистика

Создавать темы 17-Дек-2015 05:16

[Цитировать]

Информация о фильме
Название: Жертвуя пешкой
Оригинальное название: Pawn Sacrifice
Год выхода: 2015
Жанр: драма, биография
Режиссер: Эдвард Цвик
В ролях: Тоби Магуайр, Лив Шрайбер, Робин Вайгерт, Лили Рэйб, Питер Сарсгаард, Майкл Стулбарг, Софи Нелисс, Эвелин Брошу, Шеймас Дэви-Фицпатрик, Лидия Зедел
О фильме: В разгар Холодной войны внимание всей планеты приковано к «схватке столетия» — матчу за звание чемпиона мира по шахматам в Рейкьявике. Бой между абсолютным чемпионом Борисом Спасским и по-настоящему одержимым игрой Бобби Фишером превращается в борьбу за интеллектуальное превосходство двух сверхдержав. Права на проигрыш нет. Вокруг поединка разражается мировой скандал. Спасскому приходится справляться с беспрецедентным давлением. Гениальный разум Фишера, взвинченный паранойей, начинает охватывать безумие.

Выпущено: США / Gail Katz Productions, Material Pictures, Mel's Cite du Cinema, MICA Entertainment, Palm-Star Entertainment, PenLife Media
Продолжительность: 01:55:43
Озвучивание: Дублированное [iTunes]
Файл
Качество: BDRip 1080p
Видео: 1920x802, 13.3 Мбит/сек, 23,976 кадр/сек
Аудио: Russian: AC3, 384 kb/s (6 ch) / English: AC3, 448 kb/s (6 ch)
Субтитры: English

МедиаИнфо

Формат : Matroska
Версия формата : Version 2
Размер файла : 11,4 Гбайт
Продолжительность : 1 ч. 55 м.
Общий поток : 14,2 Мбит/сек
Название фильма : ~V ad~
Дата кодирования : UTC 2015-12-17 02:43:29
Программа кодирования : mkvmerge v6.5.0 ('Isn't she lovely') built on Oct 20 2013 12:50:05
Библиотека кодирования : libebml v1.3.0 + libmatroska v1.4.1
Видео
Идентификатор : 1
Формат : AVC
Формат/Информация : Advanced Video Codec
Профиль формата : High@L4.1
Параметр CABAC формата : Да
Параметр ReFrames формата : 5 кадров
Идентификатор кодека : V_MPEG4/ISO/AVC
Продолжительность : 1 ч. 55 м.
Битрейт : 13,3 Мбит/сек
Ширина : 1920 пикселей
Высота : 802 пикселя
Соотношение сторон : 2,40:1
Режим частоты кадров : Постоянный
Частота кадров : 23,976 кадра/сек
Цветовое пространство : YUV
Субдискретизация насыщенности : 4:2:0
Битовая глубина : 8 бит
Тип развёртки : Прогрессивная
Бит/(Пиксели*Кадры) : 0.361
Размер потока : 10,5 Гбайт (92%)
Заголовок : ~V~
Библиотека кодирования : x264 core 148 r2579+50 65f745f t_mod_Custom [8-bit@all X86_64]
Настройки программы : cabac=1 / ref=5 / deblock=1:-3:-3 / analyse=0x3:0x133 / me=umh / subme=11 / psy=1 / fade_compensate=0.00 / psy_rd=1.00:0.00 / mixed_ref=1 / me_range=32 / chroma_me=1 / trellis=2 / 8x8dct=1 / cqm=0 / deadzone=21,11 / fast_pskip=0 / chroma_qp_offset=-2 / threads=12 / lookahead_threads=1 / sliced_threads=0 / nr=0 / decimate=0 / interlaced=0 / bluray_compat=0 / constrained_intra=0 / fgo=0 / bframes=11 / b_pyramid=2 / b_adapt=2 / b_bias=0 / direct=3 / weightb=1 / open_gop=0 / weightp=2 / keyint=240 / keyint_min=23 / scenecut=40 / intra_refresh=0 / rc=2pass / mbtree=0 / bitrate=13322 / ratetol=1.0 / qcomp=0.60 / qpmin=0:0:0 / qpmax=69:69:69 / qpstep=4 / cplxblur=20.0 / qblur=0.5 / ip_ratio=1.40 / pb_ratio=1.30 / aq=1:0.75 / aq-sensitivity=11.00 / aq-factor=1.00:1.00:1.00 / aq2=1:0.60 / aq2-sensitivity=10.00 / aq2-factor=1.00:1.00:1.00 / aq3=1:[0.60:0.60]:[0.60:0.60]:[0.60:0.60]:[0.60:0.60] / aq3-sensitivity=9.00 / aq3-factor=[1.00:1.00]:[1.00:1.00]:[1.00:1.00] / aq3-boundary=192:64:24
Язык : English
Default : Да
Forced : Нет
Аудио #1
Идентификатор : 2
Формат : AC-3
Формат/Информация : Audio Coding 3
Расширение режима : CM (complete main)
Параметр Endianness формата : Big
Идентификатор кодека : A_AC3
Продолжительность : 1 ч. 55 м.
Вид битрейта : Постоянный
Битрейт : 384 Кбит/сек
Каналы : 6 каналов
Расположение каналов : Front: L C R, Side: L R, LFE
Частота : 48,0 КГц
Метод сжатия : С потерями
Размер потока : 318 Мбайт (3%)
Заголовок : iTunes
Язык : Russian
Default : Да
Forced : Да
Аудио #2
Идентификатор : 3
Формат : AC-3
Формат/Информация : Audio Coding 3
Расширение режима : CM (complete main)
Параметр Endianness формата : Big
Идентификатор кодека : A_AC3
Продолжительность : 1 ч. 55 м.
Вид битрейта : Постоянный
Битрейт : 448 Кбит/сек
Каналы : 6 каналов
Расположение каналов : Front: L C R, Side: L R, LFE
Частота : 48,0 КГц
Метод сжатия : С потерями
Размер потока : 371 Мбайт (3%)
Язык : English
Default : Нет
Forced : Нет
Текст
Идентификатор : 4
Формат : UTF-8
Идентификатор кодека : S_TEXT/UTF8
Идентификатор кодека/Информация : UTF-8 Plain Text
Язык : English
Default : Нет
Forced : Нет
Меню
00:00:00.000 : en:Chapter 01
00:06:40.024 : en:Chapter 02
00:10:34.841 : en:Chapter 03
00:15:15.538 : en:Chapter 04
00:20:03.535 : en:Chapter 05
00:26:01.851 : en:Chapter 06
00:31:15.123 : en:Chapter 07
00:38:54.038 : en:Chapter 08
00:45:24.179 : en:Chapter 09
00:51:00.139 : en:Chapter 10
00:55:47.801 : en:Chapter 11
00:59:35.612 : en:Chapter 12
01:07:02.434 : en:Chapter 13
01:10:49.536 : en:Chapter 14
01:18:07.807 : en:Chapter 15
01:22:53.676 : en:Chapter 16
01:29:49.884 : en:Chapter 17
01:35:09.494 : en:Chapter 18
01:39:16.951 : en:Chapter 19
01:48:15.113 : en:Chapter 20
01:55:43.685 : en:Chapter 21

х264

x264 [info]: frame I:1151 Avg QP:16.70 size:247849
x264 [info]: frame P:29742 Avg QP:18.84 size:108233
x264 [info]: frame B:135595 Avg QP:20.68 size: 59406

Скриншоты


Сэмпл
[Профиль] [ЛС]
Показать сообщения:    

Текущее время: Сегодня 05:19

Часовой пояс: GMT



Вы не можете начинать темы
Вы не можете отвечать на сообщения
Вы не можете редактировать свои сообщения
Вы не можете удалять свои сообщения
Вы не можете голосовать в опросах
Вы не можете прикреплять файлы к сообщениям
Вы не можете скачивать файлы