Женщины на грани нервного срыва / Mujeres al borde de un ataque de nervios (1988) BDRip 1080p

 
Автор Сообщение

sergej644 ®

Пол:

Стаж: 4 года 11 месяцев

Сообщений: 6035

Откуда: Soviet Union



Награды: Нет

Торрент-статистика

Создавать темы 02-Мар-2015 16:24

[Цитировать]

Информация о фильме
Название: Женщины на грани нервного срыва
Оригинальное название: Mujeres al borde de un ataque de nervios
Год выхода: 1988
Жанр: драма, комедия
Режиссер: Педро Альмодовар
В ролях: Кармен Маура (Pepa), Антонио Бандерас (Carlos), Хульета Серрано (Lucía), Росси де Пальма (Marisa), Мария Барранко (Candela), Кити Манвер (Paulina Morales), Гильермо Монтесинос (Taxista), Чус Лампреаве (Portera Testiga de Jehová), Эдуардо Кальво (Padre de Lucía), Лолес Леон (Secretaria), Анхел де Андрес Лопес (Policía I), Фернандо Гильен (Iván)
О фильме:
Ее бросил любовник, его жена не дает ей проходу, ее подруга связалась с террористами, а ее адвокат оказалась обыкновенной дрянью. Можно ли пережить все это и не сойти с ума?

Страна: Испания
Студия: El Deseo S.A., Laurenfilm S.A.
Продолжительность: 01:28:20
Перевод: Профессиональный (многоголосый, закадровый)
Файл
Кодек: h.264
Качество: BDRip 1080p
Видео: MPEG-4 AVC, 1920x1040, 9 200 Кбит/с, 23.976 кадр/с
Звук:
Аудио #1: Русский ( AC3, 2ch, 448 Кбит/с, 48.0 KH z) Профессиональный (многоголосый, закадровый) R5, Кармен Видео
Аудио #2: Испанский (AC3, 2ch, 640 Кбит/с, 48.0 KHz)
Субтитры: русские, испанские

MediaInfo

Complete name : Mujeres.al.borde.de.un.ataque.de.nervios.mkv
Format : Matroska
Format version : Version 4 / Version 2
File size : 6.37 GiB
Duration : 1h 28mn
Overall bit rate : 10.3 Mbps
Encoded date : UTC 2015-02-21 12:38:16
Writing application : mkvmerge v6.9.1 ('Blue Panther') 64bit built on Apr 18 2014 18:23:38
Writing library : libebml v1.3.0 + libmatroska v1.4.1
Video
ID : 1
Format : AVC
Format/Info : Advanced Video Codec
Format profile : High@L4.1
Format settings, CABAC : Yes
Format settings, ReFrames : 4 frames
Codec ID : V_MPEG4/ISO/AVC
Bit rate : 9 200 Kbps
Width : 1 920 pixels
Height : 1 040 pixels
Display aspect ratio : 1.85:1
Frame rate mode : Variable
Original frame rate : 23.976 fps
Color space : YUV
Chroma subsampling : 4:2:0
Bit depth : 8 bits
Scan type : Progressive
Bits/(Pixel*Frame) : 0.192
Title : Video
Writing library : x264 core 130 r2273 b3065e6
Encoding settings : cabac=1 / ref=4 / deblock=1:-1:-1 / analyse=0x3:0x113 / me=umh / subme=11 / psy=1 / psy_rd=1.00:0.15 / mixed_ref=1 / me_range=32 / chroma_me=1 / trellis=2 / 8x8dct=1 / cqm=0 / deadzone=21,11 / fast_pskip=0 / chroma_qp_offset=2 / threads=6 / lookahead_threads=1 / sliced_threads=0 / nr=0 / decimate=1 / interlaced=0 / bluray_compat=0 / constrained_intra=0 / bframes=8 / b_pyramid=2 / b_adapt=2 / b_bias=0 / direct=3 / weightb=1 / open_gop=1 / weightp=2 / keyint=250 / keyint_min=23 / scenecut=40 / intra_refresh=0 / rc_lookahead=50 / rc=2pass / mbtree=1 / bitrate=9200 / ratetol=1.0 / qcomp=0.69 / qpmin=0 / qpmax=69 / qpstep=4 / cplxblur=20.0 / qblur=0.5 / ip_ratio=1.40 / aq=1:1.00
Language : Spanish
Default : Yes
Forced : No
Audio #1
ID : 2
Format : AC-3
Format/Info : Audio Coding 3
Mode extension : CM (complete main)
Format settings, Endianness : Big
Codec ID : A_AC3
Duration : 1h 28mn
Bit rate mode : Constant
Bit rate : 448 Kbps
Channel(s) : 2 channels
Channel positions : Front: L R
Sampling rate : 48.0 KHz
Bit depth : 16 bits
Compression mode : Lossy
Stream size : 283 MiB (4%)
Title : Audio 1
Language : Russian
Default : Yes
Forced : No
Audio #2
ID : 3
Format : AC-3
Format/Info : Audio Coding 3
Mode extension : CM (complete main)
Format settings, Endianness : Big
Codec ID : A_AC3
Duration : 1h 28mn
Bit rate mode : Constant
Bit rate : 640 Kbps
Channel(s) : 2 channels
Channel positions : Front: L R
Sampling rate : 48.0 KHz
Bit depth : 16 bits
Compression mode : Lossy
Stream size : 404 MiB (6%)
Title : Audio 2
Language : Spanish
Default : No
Forced : No
Text #1
ID : 4
Format : PGS
Muxing mode : zlib
Codec ID : S_HDMV/PGS
Codec ID/Info : The same subtitle format used on BDs/HD-DVDs
Language : Russian
Default : Yes
Forced : No
Text #2
ID : 5
Format : PGS
Muxing mode : zlib
Codec ID : S_HDMV/PGS
Codec ID/Info : The same subtitle format used on BDs/HD-DVDs
Language : Spanish
Default : No
Forced : No

Скриншоты

[Профиль] [ЛС]
Кто просматривает тему:

Форум Тема Автор Размер
Chanson (Шансон) VA - Любимой женщине. Праздничный выпуск - 2015, MP3, 256 kbps Magnat 701 MB
Chanson (Шансон) VA - Я прочитаю в глазах твоих. Подарочный сборник для любимых женщин - 2015, MP3, 256 kbps Magnat 697 MB
Chanson (Шансон, Поп) VA - Песни о любви для милых женщин - 2015, MP3, 256 kbps Magnat 685 MB
BBC BBC: Восхождение женщины / The Ascent of Woman [серии 1-4 из 4] (Hugo Macgregor) [2015 г., Документальный, история, археология, исследования, HDTVRip 720p] skorpionN 6.28 GB
BBC BBC: Женщины эпохи Реставрации (Куртизанки, домохозяйки и героини) / Harlots Housewives and Heroines: A 17th Century History for Girls [серии 1-3 из 3](Nick Gillam-Smith, Eleanor Scoones) [2012 г... skorpionN 4.33 GB
Viasat History Viasat History: Женщины-викинги / Die Frauen der Wikinger (Viking Women) [сезон 1 серии 1-2 из2] (Йоав Пэриш / Yoav Parish, Юдит Фёлькер / Judith Voelker, Kai Christi... skorpionN 1.45 GB
Viasat History Viasat History: Женщины-самураи / Samurai Warrior Queens (Jon Wate) [2015 г., Документальный, история, реконструкция, SATRip] skorpionN 747 MB
XXXI Летние Олимпийские игры. Рио-де-Жанейро 2016 (Бразилия) XXXI Летние Олимпийские игры в Рио. Бокс. Мужчины.[52, 64, Свыше 91 кг] Женщины [75, 60 кг] (2016) SATRip достали все 2.09 GB
Показать сообщения:    

Текущее время: Сегодня 20:04

Часовой пояс: GMT



Вы не можете начинать темы
Вы не можете отвечать на сообщения
Вы не можете редактировать свои сообщения
Вы не можете удалять свои сообщения
Вы не можете голосовать в опросах
Вы не можете прикреплять файлы к сообщениям
Вы не можете скачивать файлы