Женщина со сломанным носом / Женщина с разбитым носом / Zena sa slomljenim nosem (Срджан Колевич / Srdjan Koljevic) [2010, Сербия, Германия, Драма, мелодрама, DVDRip] (yugo45) + Sub Rus

 
Автор Сообщение

TorrentFilm ®

Пол:

Стаж: 2 года

Сообщений: 7741



Награды: Нет

Торрент-статистика

Создавать темы 05-Мар-2015 00:01

[Цитировать]

Женщина со сломанным носом / Женщина с разбитым носом / Zena sa slomljenim nosem
Страна: Сербия, Германия
Жанр: Драма, мелодрама
Год выпуска: 2010
Продолжительность: 01:39:35
Перевод: Субтитры yugo45
Cубтитры: русские
Оригинальная аудиодорожка: сербская
Режиссер: Срджан Колевич / Srdjan Koljevic
В ролях: Небойша Глоговац, Аница Добра, Бранка Катич, Ясна Жалица, Нада Шаргин, Никола Ракочевич, Вук Костич, Любомир Бандович, Стипе Эрцег, Войин Четкович, Никола Джуричко
Описание: Молодая женщина со сломанным носом неожиданно вылезает из такси в пробке на мосту и прыгает в реку. На заднем сидении остаётся её маленький ребёнок. Этот случай переплетает судьбы всех трёх очевидцев происшествия, которые с этого момента каждый по-разному будут пытаться изменить свою жизнь. Водитель такси, оставшись с ребёнком на руках, хочет оставить его с матерью и начинает бороться за её жизнь. Учительница Аница, всё ещё переживающая смерть своего сына в результате несчастного случая и не понимающая как справиться с эмоциональной пустотой, теперь не знает что делать с вниманием, которое проявляет к ней один из учеников. А фармацевт Биляна вдруг осознаёт, что собирается выйти замуж совсем не за того человека... У каждого из героев имеется своя рана в прошлом, и, как выясняется, они так и не смогли с ней справиться. И на этом мосту, где старая часть города соединяется с Новым Белградом, они находят причины жить дальше, и здесь начинается их путь к эмоциональному исцелению.
Сэмпл: http://multi-up.com/12345678
Качество видео: DVDRip
Формат видео: AVI
Видео: XviD, 720*416, 1.731, 25.000 fps, 1 511 Kbps
Аудио: AC3, 48.0 KHz, 16 bits, 6 channels (Front: L C R, Side: L R, LFE)
Формат субтитров: softsub (SRT)

MediaInfo

General
Complete name : ./Рабочий стол/Zena sa slomljenim nosem[2010]/Zena sa slomljenim nosem[2010].avi
Format : AVI
Format/Info : Audio Video Interleave
File size : 1.37 GiB
Duration : 1h 39mn
Overall bit rate : 1 966 Kbps
Writing application : VirtualDubMod 1.5.4.1 (build 2178/release)
Writing library : VirtualDubMod build 2178/release
Video
ID : 0
Format : MPEG-4 Visual
Format profile : Advanced Simple@L5
Format settings, BVOP : 1
Format settings, QPel : No
Format settings, GMC : No warppoints
Format settings, Matrix : Custom
Codec ID : XVID
Codec ID/Hint : XviD
Duration : 1h 39mn
Bit rate : 1 511 Kbps
Width : 720 pixels
Height : 416 pixels
Display aspect ratio : 1.731
Frame rate : 25.000 fps
Color space : YUV
Chroma subsampling : 4:2:0
Bit depth : 8 bits
Scan type : Progressive
Compression mode : Lossy
Bits/(Pixel*Frame) : 0.202
Stream size : 1.05 GiB (77%)
Writing library : XviD 73
Audio
ID : 1
Format : AC-3
Format/Info : Audio Coding 3
Mode extension : CM (complete main)
Format settings, Endianness : Big
Codec ID : 2000
Duration : 1h 39mn
Bit rate mode : Constant
Bit rate : 448 Kbps
Channel(s) : 6 channels
Channel positions : Front: L C R, Side: L R, LFE
Sampling rate : 48.0 KHz
Bit depth : 16 bits
Compression mode : Lossy
Delay relative to video : 640ms
Stream size : 319 MiB (23%)
Alignment : Split accross interleaves
Interleave, duration : 96 ms (2.40 video frames)
Interleave, preload duration : 96 ms
Language : Serbian

Скриншот c названием фильма

Скриншоты






Фрагмент субтитров

2
00:01:10,820 --> 00:01:13,270
Как нам подтвердили, осталось
ещё ровно 33 дня
3
00:01:13,370 --> 00:01:15,821
до уничтожения вашей любимой станции.
4
00:01:16,181 --> 00:01:18,660
Привет для вас в пробке...
5
00:01:18,780 --> 00:01:20,710
Мне кажется, что вы застряли,
но если нам чуть-чуть повезёт,
6
00:01:20,810 --> 00:01:22,741
мы освободим вас когда-нибудь.
7
00:01:22,901 --> 00:01:26,262
Поэтому расслабьтесь и получайте
удовольствие...
8
00:01:49,024 --> 00:01:50,783
Травмпункт!
- Куда?
9
00:01:50,903 --> 00:01:52,583
Травмпункт!
- Травмпункт? - Да!
10
00:02:08,305 --> 00:02:10,786
Деревенщина раздолбайская!
11
00:02:17,226 --> 00:02:19,346
Ты хотела в мае, что теперь не так?
12
00:02:19,426 --> 00:02:23,227
Это через 6 месяцев!
- 6 месяцев будет завтра.
13
00:02:24,826 --> 00:02:26,907
Четвёртого.
- Червёртого?
14
00:02:26,987 --> 00:02:30,187
Так ведь тогда Тито умер, да?
- Ну и что?
15
00:02:30,307 --> 00:02:34,468
Ну я не знаю... Неприятно, не особо
хороший день для свадьбы.
16
00:02:34,628 --> 00:02:37,867
Биляна, не пори чушь. Извини меня,
но пожалуйста не пори чушь.
17
00:02:48,788 --> 00:02:50,189
У тебя есть платочек?
18
00:02:52,789 --> 00:02:54,189
Нет.
19
00:02:56,350 --> 00:02:59,349
Что ты делаешь? Не обрызгай мне
накидки! Ты ненормальная?!
20
00:03:01,950 --> 00:03:04,430
Эй... подожди!
21
00:03:06,591 --> 00:03:08,431
Куда ты?
22
00:03:15,151 --> 00:03:17,391
Остановись. Кто-то прыгнул.
- Кто прыгнул? Что ты несёшь?
23
00:03:17,592 --> 00:03:19,421
Да остановись же ты!
Когда я тебе говорю!
24
00:03:19,521 --> 00:03:21,351
Не трогай меня, когда я веду машину!
[Профиль] [ЛС]

Создавать темы 06-Авг-2015 22:42 (спустя 5 месяцев 1 день)

Топик был перенесен из форума Фильмы до 2014 года в форум Фильмы до 2012 года
sergej644
 

Создавать темы 12-Июн-2016 07:54 (спустя 1 год 3 месяца)

Топик был перенесен из форума Фильмы 2011 года в форум Фильмы 2010 года
Russian Mafia
 
Кто просматривает тему:

Форум Тема Автор Размер
Chanson (Шансон) VA - Любимой женщине. Праздничный выпуск - 2015, MP3, 256 kbps Magnat 701 MB
Chanson (Шансон) VA - Я прочитаю в глазах твоих. Подарочный сборник для любимых женщин - 2015, MP3, 256 kbps Magnat 697 MB
Chanson (Шансон, Поп) VA - Песни о любви для милых женщин - 2015, MP3, 256 kbps Magnat 685 MB
BBC BBC: Восхождение женщины / The Ascent of Woman [серии 1-4 из 4] (Hugo Macgregor) [2015 г., Документальный, история, археология, исследования, HDTVRip 720p] skorpionN 6.28 GB
BBC BBC: Женщины эпохи Реставрации (Куртизанки, домохозяйки и героини) / Harlots Housewives and Heroines: A 17th Century History for Girls [серии 1-3 из 3](Nick Gillam-Smith, Eleanor Scoones) [2012 г... skorpionN 4.33 GB
Viasat History Viasat History: Женщины-викинги / Die Frauen der Wikinger (Viking Women) [сезон 1 серии 1-2 из2] (Йоав Пэриш / Yoav Parish, Юдит Фёлькер / Judith Voelker, Kai Christi... skorpionN 1.45 GB
Viasat History Viasat History: Женщины-самураи / Samurai Warrior Queens (Jon Wate) [2015 г., Документальный, история, реконструкция, SATRip] skorpionN 747 MB
XXXI Летние Олимпийские игры. Рио-де-Жанейро 2016 (Бразилия) XXXI Летние Олимпийские игры в Рио. Бокс. Мужчины.[52, 64, Свыше 91 кг] Женщины [75, 60 кг] (2016) SATRip достали все 2.09 GB
Показать сообщения:    

Текущее время: Сегодня 16:16

Часовой пояс: GMT



Вы не можете начинать темы
Вы не можете отвечать на сообщения
Вы не можете редактировать свои сообщения
Вы не можете удалять свои сообщения
Вы не можете голосовать в опросах
Вы не можете прикреплять файлы к сообщениям
Вы не можете скачивать файлы