Женщина его мечты [01-04 из 04] (2016) WEB-DLRip от GeneralFilm

 
Автор Сообщение

Russian Mafia ®

Пол:

Стаж: 1 год 8 месяцев

Сообщений: 4247



Награды: 10 (Подробнее)

Top Releaser 2 (Количество: 1) Top Releaser 4 (Количество: 1) Top Releaser 5 (Количество: 1)
Торрент-статистика

Создавать темы 09-Окт-2016 12:59

[Цитировать]

Информация о фильме
Оригинальное название: Женщина его мечты
Год выпуска: 2016
Жанр: Лирическая комедия
Режиссер: Ашот Кещян
В ролях: Фатима Горбенко, Елена Муравьёва, Юлия Зимина, Юрий Батурин, Константин Соловьёв, Митя Лабуш, Михаил Дорожкин, Леонид Громов, Нина Касторф, Сергей Булин, Фёдор Гуринец, Алексей Смолка, Татьяна Юрикова, Евгений Паперный, Артём Мартынишин, Андрей Лелюх, Антонина Макарчук, Светлана Косолапова, Николай Олейник, Сергей Калантай, Игорь Гнездилов, Татьяна Печёнкина
О фильме:
На редколлегии женского еженедельника «XXS» в этот раз было не скучно. Обсуждали не обложку, не верстку и не страницу гороскопов. Нешуточные страсти разгорелись вокруг темы ноябрьского номера: «Чего хотят мужчины?» В схватке участвовали три акулы – три главных автора журнала: Лиза Пахомова («умница»), Вероника Ланская («красавица») и Оля Пышненко («душечка»). Лиза выступала за интеллектуальное соответствие высоким запросам современного мужчины: успехом, по ее мнению, сегодня пользуются остроумные, блестящие женщины с широким кругом интересов. Вероника со знанием дела уверяла, что у нее уйдет пятнадцать минут на то, чтобы отбить мужчину даже у нобелевской лауреатки – достаточно надеть шпильки и слегка подкрасить губы. Оля сказала, что они могут хоть подраться за внимание мужчин – да, на свидания их будут приглашать... но женятся мужчины на таких, как она: уютных, милых, домашних. В конце концов главный редактор Михаил Михайлович Ильин хлопнул кулаком по столу: «хватит пустых слов, идите и докажите! Через месяц жду вас здесь: у кого будет больше предложений руки и сердца, та и будет писать главную статью». Впрочем, у директора есть свой ответ на вопрос: «Чего хотят мужчины?» Для чистоты эксперимента он написал его тут же, на редколлегии, и заклеил конверт. Через месяц проверим – угадал он или нет.

Страна: Россия
Студия: "Энерджи Фильм Продакшен"
Продолжительность: 4 x ~ 00:44:00
Перевод: Не требуется
Файл
Формат: AVI
Качество: WEB-DLRip
Видео: XviD build 73, 656x368 (16:9), 25.000 fps, ~ 900 Kbps (~ 0.150 bit/pixel)
Звук: 48.0 kHz, MP3, 2/0 ch, 128 kbps
Субтитры: нет

МедиаИнфо

General
Complete name : Zhensina.Ego.Mechty.(2016).XviD.WEB-DLRip.by.GeneralFilmserija.01.avi
Format : AVI
Format/Info : Audio Video Interleave
File size : 374 MiB
Duration : 49mn 58s
Overall bit rate : 1 045 Kbps
Writing application : VirtualDubMod 1.5.10.3 | www.virtualdub-fr.org || (build 2550/release)
Writing library : VirtualDubMod build 2550/release
Video
ID : 0
Format : MPEG-4 Visual
Format profile : Advanced Simple@L5
Format settings, BVOP : 1
Format settings, QPel : No
Format settings, GMC : No warppoints
Format settings, Matrix : Custom
Codec ID : XVID
Codec ID/Hint : XviD
Duration : 49mn 58s
Bit rate : 908 Kbps
Width : 656 pixels
Height : 368 pixels
Display aspect ratio : 16:9
Frame rate : 25.000 fps
Color space : YUV
Chroma subsampling : 4:2:0
Bit depth : 8 bits
Scan type : Progressive
Compression mode : Lossy
Bits/(Pixel*Frame) : 0.150
Stream size : 324 MiB (87%)
Writing library : XviD 73
Audio
ID : 1
Format : MPEG Audio
Format version : Version 1
Format profile : Layer 3
Codec ID : 55
Codec ID/Hint : MP3
Duration : 49mn 58s
Bit rate mode : Constant
Bit rate : 128 Kbps
Channel(s) : 2 channels
Sampling rate : 48.0 KHz
Compression mode : Lossy
Stream size : 45.7 MiB (12%)
Alignment : Aligned on interleaves
Interleave, duration : 40 ms (1.00 video frame)
Interleave, preload duratio : 504 ms
Writing library : LAME3.99r
Encoding settings : -m s -V 4 -q 0 -lowpass 17 -b 128

Скриншоты





[Профиль] [ЛС]
Кто просматривает тему:

Форум Тема Автор Размер
Chanson (Шансон) VA - Любимой женщине. Праздничный выпуск - 2015, MP3, 256 kbps Magnat 701 MB
Chanson (Шансон) VA - Я прочитаю в глазах твоих. Подарочный сборник для любимых женщин - 2015, MP3, 256 kbps Magnat 697 MB
Chanson (Шансон, Поп) VA - Песни о любви для милых женщин - 2015, MP3, 256 kbps Magnat 685 MB
BBC BBC: Восхождение женщины / The Ascent of Woman [серии 1-4 из 4] (Hugo Macgregor) [2015 г., Документальный, история, археология, исследования, HDTVRip 720p] skorpionN 6.28 GB
BBC BBC: Женщины эпохи Реставрации (Куртизанки, домохозяйки и героини) / Harlots Housewives and Heroines: A 17th Century History for Girls [серии 1-3 из 3](Nick Gillam-Smith, Eleanor Scoones) [2012 г... skorpionN 4.33 GB
Viasat History Viasat History: Женщины-викинги / Die Frauen der Wikinger (Viking Women) [сезон 1 серии 1-2 из2] (Йоав Пэриш / Yoav Parish, Юдит Фёлькер / Judith Voelker, Kai Christi... skorpionN 1.45 GB
Viasat History Viasat History: Женщины-самураи / Samurai Warrior Queens (Jon Wate) [2015 г., Документальный, история, реконструкция, SATRip] skorpionN 747 MB
XXXI Летние Олимпийские игры. Рио-де-Жанейро 2016 (Бразилия) XXXI Летние Олимпийские игры в Рио. Бокс. Мужчины.[52, 64, Свыше 91 кг] Женщины [75, 60 кг] (2016) SATRip достали все 2.09 GB
Показать сообщения:    

Текущее время: Сегодня 14:31

Часовой пояс: GMT



Вы не можете начинать темы
Вы не можете отвечать на сообщения
Вы не можете редактировать свои сообщения
Вы не можете удалять свои сообщения
Вы не можете голосовать в опросах
Вы не можете прикреплять файлы к сообщениям
Вы не можете скачивать файлы