Женщина в черном / The Woman in Black (2012) BDRip 1080p

 
Автор Сообщение

Russian Mafia ®

Пол:

Стаж: 1 год 8 месяцев

Сообщений: 4253



Награды: 10 (Подробнее)

Mega Seeder 5 (Количество: 1) Top Releaser 5 (Количество: 1) Top Releaser 2 (Количество: 1)
Торрент-статистика

Создавать темы 14-Сен-2015 17:39

[Цитировать]

Информация о фильме
Название: Женщина в черном
Оригинальное название: The Woman in Black
Год выхода: 2012
Жанр: ужасы, триллер, драма
Режиссер: Джеймс Уоткинс
В ролях: Дэниэл Рэдклифф, Кирен Хайдз, Джанет МакТир, Дэвид Бурк, Шон Дули, Эмма Шори, Молли Хэрмон, Ellisa Walker-Reid, Софи Стаки, Миша Хэндли
О фильме: На дворе — конец девятнадцатого века, но, хотя люди пользуются автомобилями, железными дорогами и телеграфом, человек по-прежнему бессилен перед проявлениями сверхъестественного. Молодой лондонский юрист Артур Киппс вынужден оставить своего 4-летнего сына и отправиться в командировку в уединенную северную деревушку, чтобы составить реестр документов, оставшихся от скончавшегося хозяина поместья Ил Марш. Добравшись до места и пообщавшись с негостеприимными местными жителями, он начинает понимать, что над деревушкой нависла тень мрачной тайны. Когда же рядом со старым кладбищем ему на глаза попадается загадочная женщина, одетая в черное, это малозначительное происшествие знаменует начало череды леденящих кровь смертей в семьях обитателей деревни.

Выпущено: Cross Creek Pictures
Продолжительность: 01:35:20
Перевод: Дублированный (лицензия)
Файл
Кодек: x264
Качество: BDRip (источник: Blu-ray Disc)
Видео: 1920x816 (2,35:1), 23.976 fps, 7755 kbps
Аудио #1: AC-3, 6 ch, 448 kbps (Rus)
Аудио #2: AC-3, 6 ch, 448 kbps (Eng)
Субтитры: Русские (форс,полные), Английские
Скачать: сэмпл
Скриншоты

MI

Общее
Уникальный идентификатор : 193981367390247818272445782732250032816 (0x91EF73D1352B19049A200F6F37442AB0)
Полное имя : The.Woman.in.Black.2012.BDRip.1080p.Rus.Eng.mkv
Формат : Matroska
Версия формата : Version 2
Размер файла : 5,76 Гбайт
Продолжительность : 1 ч. 35 м.
Общий поток : 8652 Кбит/сек
Название фильма : Женщина в черном / The Woman in Black (2012)
Дата кодирования : UTC 2012-07-20 10:34:40
Программа кодирования : mkvmerge v5.7.0 ('The Whirlwind') built on Jul 8 2012 20:08:51
Библиотека кодирования : libebml v1.2.3 + libmatroska v1.3.0
Видео
Идентификатор : 1
Формат : AVC
Формат/Информация : Advanced Video Codec
Профиль формата : High@L4.1
Параметр CABAC формата : Да
Параметр ReFrames формата : 5 кадров
Идентификатор кодека : V_MPEG4/ISO/AVC
Продолжительность : 1 ч. 35 м.
Битрейт : 7755 Кбит/сек
Ширина : 1920 пикселей
Высота : 816 пикселей
Соотношение сторон : 2,35:1
Частота кадров : 23,976 кадра/сек
Цветовое пространство : YUV
Субдискретизация насыщенности : 4:2:0
Битовая глубина : 8 бит
Тип развёртки : Прогрессивная
Бит/(Пиксели*Кадры) : 0.206
Размер потока : 5,05 Гбайт (88%)
Заголовок : Release by AlexKa
Библиотека кодирования : x264 core 125 r2208 d9d2288
Настройки программы : cabac=1 / ref=5 / deblock=1:-3:-3 / analyse=0x3:0x133 / me=umh / subme=10 / psy=1 / psy_rd=1.00:0.10 / mixed_ref=1 / me_range=32 / chroma_me=1 / trellis=2 / 8x8dct=1 / cqm=0 / deadzone=21,11 / fast_pskip=0 / chroma_qp_offset=-3 / threads=12 / lookahead_threads=2 / sliced_threads=0 / nr=0 / decimate=0 / interlaced=0 / bluray_compat=0 / constrained_intra=0 / bframes=5 / b_pyramid=2 / b_adapt=2 / b_bias=0 / direct=3 / weightb=1 / open_gop=0 / weightp=2 / keyint=240 / keyint_min=23 / scenecut=40 / intra_refresh=0 / rc=2pass / mbtree=0 / bitrate=7755 / ratetol=1.0 / qcomp=0.60 / qpmin=0 / qpmax=69 / qpstep=4 / cplxblur=20.0 / qblur=0.5 / ip_ratio=1.40 / pb_ratio=1.30 / aq=1:1.00
Язык : English
Аудио #1
Идентификатор : 2
Формат : AC-3
Формат/Информация : Audio Coding 3
Расширение режима : CM (complete main)
Идентификатор кодека : A_AC3
Продолжительность : 1 ч. 35 м.
Вид битрейта : Постоянный
Битрейт : 448 Кбит/сек
Каналы : 6 каналов
Расположение каналов : Front: L C R, Side: L R, LFE
Частота : 48,0 КГц
Битовая глубина : 16 бит
Метод сжатия : С потерями
Размер потока : 305 Мбайт (5%)
Заголовок : Rus
Язык : Russian
Аудио #2
Идентификатор : 3
Формат : AC-3
Формат/Информация : Audio Coding 3
Расширение режима : CM (complete main)
Идентификатор кодека : A_AC3
Продолжительность : 1 ч. 35 м.
Вид битрейта : Постоянный
Битрейт : 448 Кбит/сек
Каналы : 6 каналов
Расположение каналов : Front: L C R, Side: L R, LFE
Частота : 48,0 КГц
Битовая глубина : 16 бит
Метод сжатия : С потерями
Размер потока : 305 Мбайт (5%)
Заголовок : Eng
Язык : English
Текст #1
Идентификатор : 4
Формат : UTF-8
Идентификатор кодека : S_TEXT/UTF8
Идентификатор кодека/Информация : UTF-8 Plain Text
Заголовок : Rus forced
Язык : Russian
Текст #2
Идентификатор : 5
Формат : UTF-8
Идентификатор кодека : S_TEXT/UTF8
Идентификатор кодека/Информация : UTF-8 Plain Text
Заголовок : Rus
Язык : Russian
Текст #3
Идентификатор : 6
Формат : UTF-8
Идентификатор кодека : S_TEXT/UTF8
Идентификатор кодека/Информация : UTF-8 Plain Text
Заголовок : Eng
Язык : English
Меню
00:00:00.000 : :Chapter 01
00:06:54.413 : :Chapter 02
00:12:54.190 : :Chapter 03
00:17:36.764 : :Chapter 04
00:26:21.121 : :Chapter 05
00:30:03.343 : :Chapter 06
00:36:10.501 : :Chapter 07
00:39:58.437 : :Chapter 08
00:45:48.662 : :Chapter 09
00:51:59.324 : :Chapter 10
00:58:02.353 : :Chapter 11
01:03:25.676 : :Chapter 12
01:08:43.369 : :Chapter 13
01:12:49.031 : :Chapter 14
01:17:10.083 : :Chapter 15
01:25:58.403 : :Chapter 16

x264

x264 [info]: frame I:1165 Avg QP:12.88 size:204387
x264 [info]: frame P:30407 Avg QP:15.49 size: 83145
x264 [info]: frame B:105564 Avg QP:18.02 size: 26308
[Профиль] [ЛС]
Кто просматривает тему:

Форум Тема Автор Размер
Chanson (Шансон) VA - Любимой женщине. Праздничный выпуск - 2015, MP3, 256 kbps Magnat 701 MB
Chanson (Шансон) VA - Я прочитаю в глазах твоих. Подарочный сборник для любимых женщин - 2015, MP3, 256 kbps Magnat 697 MB
Chanson (Шансон, Поп) VA - Песни о любви для милых женщин - 2015, MP3, 256 kbps Magnat 685 MB
BBC BBC: Восхождение женщины / The Ascent of Woman [серии 1-4 из 4] (Hugo Macgregor) [2015 г., Документальный, история, археология, исследования, HDTVRip 720p] skorpionN 6.28 GB
BBC BBC: Женщины эпохи Реставрации (Куртизанки, домохозяйки и героини) / Harlots Housewives and Heroines: A 17th Century History for Girls [серии 1-3 из 3](Nick Gillam-Smith, Eleanor Scoones) [2012 г... skorpionN 4.33 GB
Viasat History Viasat History: Женщины-викинги / Die Frauen der Wikinger (Viking Women) [сезон 1 серии 1-2 из2] (Йоав Пэриш / Yoav Parish, Юдит Фёлькер / Judith Voelker, Kai Christi... skorpionN 1.45 GB
Viasat History Viasat History: Женщины-самураи / Samurai Warrior Queens (Jon Wate) [2015 г., Документальный, история, реконструкция, SATRip] skorpionN 747 MB
XXXI Летние Олимпийские игры. Рио-де-Жанейро 2016 (Бразилия) XXXI Летние Олимпийские игры в Рио. Бокс. Мужчины.[52, 64, Свыше 91 кг] Женщины [75, 60 кг] (2016) SATRip достали все 2.09 GB
Показать сообщения:    

Текущее время: Сегодня 16:57

Часовой пояс: GMT



Вы не можете начинать темы
Вы не можете отвечать на сообщения
Вы не можете редактировать свои сообщения
Вы не можете удалять свои сообщения
Вы не можете голосовать в опросах
Вы не можете прикреплять файлы к сообщениям
Вы не можете скачивать файлы