Женщина без чувства юмора / Серии: 1-4 из 4 (Дмитрий Сорокин) [2016, детектив,криминал, SATRip-AVC]

 
Автор Сообщение

Aleksan66 ®

Стаж: 2 месяца 12 дней

Сообщений: 10



Награды: Нет

Торрент-статистика

Создавать темы 26-Сен-2016 02:02

[Цитировать]

Женщина без чувства юмора --
Год выпуска: 2016
Производство: Россия,продюсерская компания "ДС"
Жанр: детектив,криминал
Продолжительность: 00:43:00
Субтитры: нет
--
Режиссёр: Дмитрий Сорокин
--
В ролях: Екатерина Порубель, Константин Новиков , Ингрид Олеринская, Борис Миронов, Всеволод Болдин, Александр Цуркан, Никита Тарасов, Дмитрий Дорохов, Юрий Нифонтов, Евгений Данчевский, Константин Спасский, Андрей Железный
Описание: Непробиваемый следователь Бронислава – женщина без чувства юмора. Вместе со своим напарником, профессорским сынком и экспертом в области антиквариата, она распутывает сложное дело. Спортивная Бронислава обучает своего напарника урокам самообороны, он же рассказывает ей об искусстве, повышая культурный уровень девушки...
--

--
Релиз от:
--
Качество: SATRip
Формат: MKV
Видео кодек: H.264
Аудио кодек: AC3
Видео: MPEG4 Video (H264), 720x400, 25fps,1700 Kbps,bit/pixel 0.236
Аудио: AC3 48000Hz, stereo, 192kbps,2 ch
--

MI

Общее
Уникальный идентификатор : 240835111436075731699938174717128949093 (0xB52F27C04371CDE89F6FCC050BA53D65)
Полное имя : D:\Женщина без чувства юмора\01 серия_Женщина без чувства юмора_rip by_Aleksan55.mkv
Формат : Matroska
Версия формата : Version 2
Размер файла : 593 Мбайт
Продолжительность : 43 м.
Общий поток : 1894 Кбит/сек
Дата кодирования : UTC 2016-09-25 16:07:31
Программа кодирования : mkvmerge v7.8.0 ('River Man') 32bit built on Apr 3 2015 12:11:22
Библиотека кодирования : libebml v1.3.1 + libmatroska v1.4.2
Видео
Идентификатор : 1
Формат : AVC
Формат/Информация : Advanced Video Codec
Профиль формата : High@L4.1
Параметр CABAC формата : Да
Параметр ReFrames формата : 12 кадров
Идентификатор кодека : V_MPEG4/ISO/AVC
Продолжительность : 43 м.
Битрейт : 1700 Кбит/сек
Ширина : 720 пикселей
Высота : 400 пикселей
Соотношение сторон : 16:9
Режим частоты кадров : Постоянный
Частота кадров : 25,000 кадров/сек
Цветовое пространство : YUV
Субдискретизация насыщенности : 4:2:0
Битовая глубина : 8 бит
Тип развёртки : Прогрессивная
Бит/(Пиксели*Кадры) : 0.236
Размер потока : 521 Мбайт (88%)
Библиотека кодирования : x264 core 148 r2638 7599210
Настройки программы : cabac=1 / ref=12 / deblock=1:-2:-2 / analyse=0x3:0x133 / me=umh / subme=10 / psy=1 / psy_rd=1.00:0.00 / mixed_ref=0 / me_range=32 / chroma_me=1 / trellis=2 / 8x8dct=1 / cqm=0 / deadzone=21,11 / fast_pskip=0 / chroma_qp_offset=-2 / threads=3 / lookahead_threads=3 / sliced_threads=0 / nr=0 / decimate=0 / interlaced=0 / bluray_compat=0 / constrained_intra=0 / bframes=12 / b_pyramid=2 / b_adapt=1 / b_bias=0 / direct=3 / weightb=1 / open_gop=0 / weightp=2 / keyint=250 / keyint_min=25 / scenecut=40 / intra_refresh=0 / rc_lookahead=40 / rc=2pass / mbtree=1 / bitrate=1700 / ratetol=1.0 / qcomp=0.80 / qpmin=0 / qpmax=39 / qpstep=4 / cplxblur=20.0 / qblur=0.5 / ip_ratio=1.10 / aq=1:1.20
Default : Да
Forced : Нет
Цветовой диапазон : Limited
Основные цвета : BT.601 PAL
Характеристики трансфера : BT.470 System B, BT.470 System G
Коэффициенты матрицы : BT.601
Аудио
Идентификатор : 2
Формат : AC-3
Формат/Информация : Audio Coding 3
Расширение режима : CM (complete main)
Параметр Endianness формата : Big
Идентификатор кодека : A_AC3
Продолжительность : 43 м.
Вид битрейта : Постоянный
Битрейт : 192 Кбит/сек
Каналы : 2 канала
Расположение каналов : Front: L R
Частота : 48,0 КГц
Метод сжатия : С потерями
Размер потока : 60,1 Мбайт (10%)
Default : Да
Forced : Нет
--

Скриншоты

--Рекламы нет.
[Профиль] [ЛС]
Кто просматривает тему:

Форум Тема Автор Размер
Chanson (Шансон) VA - Любимой женщине. Праздничный выпуск - 2015, MP3, 256 kbps Magnat 701 MB
Chanson (Шансон) VA - Я прочитаю в глазах твоих. Подарочный сборник для любимых женщин - 2015, MP3, 256 kbps Magnat 697 MB
Chanson (Шансон, Поп) VA - Песни о любви для милых женщин - 2015, MP3, 256 kbps Magnat 685 MB
BBC BBC: Восхождение женщины / The Ascent of Woman [серии 1-4 из 4] (Hugo Macgregor) [2015 г., Документальный, история, археология, исследования, HDTVRip 720p] skorpionN 6.28 GB
BBC BBC: Женщины эпохи Реставрации (Куртизанки, домохозяйки и героини) / Harlots Housewives and Heroines: A 17th Century History for Girls [серии 1-3 из 3](Nick Gillam-Smith, Eleanor Scoones) [2012 г... skorpionN 4.33 GB
Viasat History Viasat History: Женщины-викинги / Die Frauen der Wikinger (Viking Women) [сезон 1 серии 1-2 из2] (Йоав Пэриш / Yoav Parish, Юдит Фёлькер / Judith Voelker, Kai Christi... skorpionN 1.45 GB
Viasat History Viasat History: Женщины-самураи / Samurai Warrior Queens (Jon Wate) [2015 г., Документальный, история, реконструкция, SATRip] skorpionN 747 MB
XXXI Летние Олимпийские игры. Рио-де-Жанейро 2016 (Бразилия) XXXI Летние Олимпийские игры в Рио. Бокс. Мужчины.[52, 64, Свыше 91 кг] Женщины [75, 60 кг] (2016) SATRip достали все 2.09 GB
Показать сообщения:    

Текущее время: Сегодня 06:27

Часовой пояс: GMT



Вы не можете начинать темы
Вы не можете отвечать на сообщения
Вы не можете редактировать свои сообщения
Вы не можете удалять свои сообщения
Вы не можете голосовать в опросах
Вы не можете прикреплять файлы к сообщениям
Вы не можете скачивать файлы