Женское дело: Ограбление банка / Kadın İşi: Banka Soygunu (А. Танер Эльхан / A. Taner Elhan) [2014, Турция, драма, криминал, комедия, DVDRip] + Sub Rus

 
Автор Сообщение

reversefile ®

Пол:

Стаж: 4 года 5 месяцев

Сообщений: 842

Откуда: ReverseFile.org



Награды: Нет

Торрент-статистика

Создавать темы 11-Авг-2014 10:41

[Цитировать]

Женское дело: Ограбление банка / Kadın İşi: Banka Soygunu
Страна: Турция
Жанр: драма, криминал, комедия
Год выпуска: 2014
Продолжительность: 01:40:39
Перевод: Субтитры (перевод Эльвина Аскерова, субтитры Фея)
Cубтитры: русские
Оригинальная аудиодорожка: турецкая
Режиссер: А. Танер Эльхан / A. Taner Elhan
В ролях: Мельтем Джумбул, Филиз Ахмет, Озге Улусой, Эсра Дерманджиолу и другие
Описание: Этот фильм - комедия, полная неожиданных поворотов сюжета и веселых моментов.
Четыре женщины – Гюлай, Бильге, Нихал и Дюрдане – хорошие подруги, они помогают и поддерживают друг друга, но у каждой из них есть свои собственные проблемы. Однажды, случайно разговорившись, они, в шутку, решают ограбить банк!
У одной - разбитое сердце, у другой - финансовые проблемы, у всех - непростые жизненные ситуации, и, изначально, никто из героинь картины даже не планировал нарушать закон и грабить банк! Но, оброненное «в шутку» слово вдруг приняло реальные очертания, а как все знают - храбрость города берет, и еще новичкам - всегда везет.
В этой истории, нестандартная ситуация оборачивается доброй комедией, в которой четырем женщинам, чтобы преуспеть, нужно стать настоящими подругами, а еще никогда не забывать, что самое важное в этой жизни – это поддержка и любовь близких людей.
Сэмпл: http://multi-up.com/991240
Качество видео: DVDRip
Формат видео: AVI
Видео: 720x368 (1.96:1), 25 fps, XviD MPEG-4 ~1609 kbps avg, 0.24 bit/pixel
Аудио: 48 kHz, MPEG Layer 3, 2 ch, ~128.00 kbps avg
Формат субтитров: hardsub (неотключаемые)

MediaInfo

Общее
Формат : AVI
Формат/Информация : Audio Video Interleave
Профиль формата : OpenDML
Размер файла : 1,23 Гбайт
Продолжительность : 1 ч. 40 м.
Общий поток : 1744 Кбит/сек
Программа кодирования : Lavf52.39.1
Видео
Идентификатор : 0
Формат : xvid
Идентификатор кодека : xvid
Продолжительность : 1 ч. 40 м.
Битрейт : 1601 Кбит/сек
Ширина : 720 пикселей
Высота : 368 пикселей
Соотношение сторон : 1,957
Частота кадров : 25,000 кадров/сек
Бит/(Пиксели*Кадры) : 0.242
Размер потока : 1,13 Гбайт (92%)
Аудио
Идентификатор : 1
Формат : MPEG Audio
Версия формата : Version 1
Профиль формата : Layer 3
Режим : Joint stereo
Расширение режима : MS Stereo
Идентификатор кодека : 55
Идентификатор кодека/Подсказка : MP3
Продолжительность : 1 ч. 40 м.
Вид битрейта : Постоянный
Битрейт : 128 Кбит/сек
Каналы : 2 канала
Частота : 48,0 КГц
Метод сжатия : С потерями
Размер потока : 92,1 Мбайт (7%)
Выравнивание : Соединение по промежуткам
Продолжительность промежутка : 24 мс. (0,60 видеокадр)
Время предзагрузки промежутка : 24 мс.

Скриншоты

[Профиль] [ЛС]
Показать сообщения:    

Текущее время: Сегодня 18:31

Часовой пояс: GMT



Вы не можете начинать темы
Вы не можете отвечать на сообщения
Вы не можете редактировать свои сообщения
Вы не можете удалять свои сообщения
Вы не можете голосовать в опросах
Вы не можете прикреплять файлы к сообщениям
Вы не можете скачивать файлы