Жених с того света (Леонид Гайдай) [1958, сатира, DVB]

 
Автор Сообщение

sergej644 ®

Пол:

Стаж: 4 года 11 месяцев

Сообщений: 6045

Откуда: Soviet Union



Награды: Нет

Торрент-статистика

Создавать темы 20-Мар-2015 23:00

[Цитировать]

-Жених с того светаЖанр: сатира
Год выпуска: 1958
Продолжительность: 00:47:39
Режиссёр: Леонид Гайдай
В ролях: Ростислав Плятт, Георгий Вицин, Вера Алтайская, Рина Зелёная
Описание: Глава учреждения КУКУ (Кустовое управление курортными учреждениями) виртуоз-бюрократ Петухов (Ростислав Плятт) попадает в щекотливое положение: вернувшись после трёхдневного отсутствия от невесты, он обнаруживает, что его похоронили, причем на совершенно законных основаниях. Тело человека, погибшего под машиной, было ошибочно принято за тело Петухова.
Качество видео: DVB
Формат видео: MPEG-PS
Видео: MPEG2 Video, 720(768)x576 (4:3), 25,000 кадров/сек, 4425 Кбит/сек
Аудио: MPEG Audio, 48,0 КГц, 192 Кбит/сек, 2 канала

MediaInfo

General
Complete name : Z:\MPG\ЖЕНИХ С ТОГО СВЕТА (Zvezda 55).mpg
Format : MPEG-PS
File size : 1.57 GiB
Duration : 47mn 38s
Overall bit rate mode : Variable
Overall bit rate : 4 711 Kbps
Video
ID : 224 (0xE0)
Format : MPEG Video
Format version : Version 2
Format profile : Main@Main
Format settings, BVOP : Yes
Format settings, Matrix : Custom
Duration : 47mn 38s
Bit rate mode : Variable
Bit rate : 4 425 Kbps
Maximum bit rate : 15.0 Mbps
Width : 720 pixels
Height : 576 pixels
Display aspect ratio : 4:3
Frame rate : 25.000 fps
Standard : PAL
Color space : YUV
Chroma subsampling : 4:2:0
Bit depth : 8 bits
Scan type : Interlaced
Scan order : Top Field First
Compression mode : Lossy
Bits/(Pixel*Frame) : 0.427
Stream size : 1.47 GiB (94%)
Audio
ID : 192 (0xC0)
Format : MPEG Audio
Format version : Version 1
Format profile : Layer 2
Duration : 47mn 38s
Bit rate mode : Constant
Bit rate : 192 Kbps
Channel(s) : 2 channels
Sampling rate : 48.0 KHz
Compression mode : Lossy
Delay relative to video : 2ms
Stream size : 65.4 MiB (4%)
[Профиль] [ЛС]

Создавать темы 06-Авг-2015 22:00 (спустя 4 месяца 16 дней)

Топик был перенесен из форума Кино СССР в форум Кино СССР
sergej644
 
Показать сообщения:    

Текущее время: Сегодня 00:13

Часовой пояс: GMT



Вы не можете начинать темы
Вы не можете отвечать на сообщения
Вы не можете редактировать свои сообщения
Вы не можете удалять свои сообщения
Вы не можете голосовать в опросах
Вы не можете прикреплять файлы к сообщениям
Вы не можете скачивать файлы