Жена Штирлица (Вадим Соколовский) [2012, Россия, мелодрама, HDTV 1080i]

 
Автор Сообщение

TorrentFilm ®

Пол:

Стаж: 2 года

Сообщений: 7741



Награды: Нет

Торрент-статистика

Создавать темы 02-Янв-2016 00:02

[Цитировать]

Жена Штирлица
Жанр: мелодрама
Год выпуска: 2012
Продолжительность: 01:30:41
Режиссёр: Вадим Соколовский
В ролях: Анна Горшкова, Павел Делонг (озвучание - Михаил Георгиу), Артем Фадеев, Ксения Князева, Татьяна Лютаева, Марианна Шульц, Константин Карасик, Антонина Козлова, Аля Никулина, Сергей Мезенцев, Александр Колесников, Дима Хопёрский, Татьяна Морозова, Галина Анисимова, Лариса Бедненко, Михаил Ермошин, Дмитрий Куделин, Владислав Дунаев, Максим Куранов, Сергей Краснов, Георгий Громов, Станислав Курач, Анастасия Платонова
Описание: Валентина одна воспитывает маленького сына Вовку. Видя, как мальчик тоскует по отцу, героиня сочиняет историю, что его папа - герой-разведчик, который выполняет секретное задание в Южной Америке и однажды обязательно вернется домой. Каково же было удивление Валентины, когда - на грани разоблачения своей лжи - она встретила мужчину, будто вышедшего из сказки, которую сочинила сама…
Доп. информация: Файл чистый. Без посторонних надписей. Выкладывается, как есть.
Релиз -
Семпл: http://multi-up.com/831607
Качество видео: HDTV 1080i
Формат видео: MPEG-TS
Видео: AVC, 1920x1080 (16:9), 25 fps, 7655 Kbps, 0.148 bit/pixel
Аудио: MPEG Audio, 48 kHz, stereo, 192 Кбит/сек

MI

ID : 1 (0x1)
Complete name : Жена Штирлица (2012, Мелодрама, HDTV) (MYDIMKA).ts
Format : MPEG-TS
File size : 5.36 GiB
Duration : 1h 30mn
Overall bit rate mode : Variable
Overall bit rate : 8 463 Kbps
Video
ID : 2911 (0xB5F)
Menu ID : 1 (0x1)
Format : AVC
Format/Info : Advanced Video Codec
Format profile : High@L4.0
Format settings, CABAC : Yes
Format settings, ReFrames : 4 frames
Codec ID : 27
Duration : 1h 30mn
Bit rate : 7 851 Kbps
Width : 1 920 pixels
Height : 1 080 pixels
Display aspect ratio : 16:9
Frame rate : 25.000 fps
Color space : YUV
Chroma subsampling : 4:2:0
Bit depth : 8 bits
Scan type : MBAFF
Bits/(Pixel*Frame) : 0.151
Stream size : 4.97 GiB (93%)
Audio
ID : 2912 (0xB60)
Menu ID : 1 (0x1)
Format : MPEG Audio
Format version : Version 1
Format profile : Layer 2
Codec ID : 3
Duration : 1h 30mn
Bit rate mode : Constant
Bit rate : 192 Kbps
Channel(s) : 2 channels
Sampling rate : 48.0 KHz
Compression mode : Lossy
Stream size : 125 MiB (2%)
Language : Russian

Скриншот с названием фильма

Скриншоты


[Профиль] [ЛС]
Кто просматривает тему:

Показать сообщения:    

Текущее время: Сегодня 14:35

Часовой пояс: GMT



Вы не можете начинать темы
Вы не можете отвечать на сообщения
Вы не можете редактировать свои сообщения
Вы не можете удалять свои сообщения
Вы не можете голосовать в опросах
Вы не можете прикреплять файлы к сообщениям
Вы не можете скачивать файлы