Жена путешественника во времени / The Time Traveler\'s Wife (Роберт Швентке / Robert Schwentke) [2009, США, Фантастика, фэнтези, драма, мелодрама, экранизация, BDRip] Dub (Мосфильм-Мастер) + AVO (Ю. Сербин)

 
Автор Сообщение

TorrentFilm ®

Пол:

Стаж: 2 года

Сообщений: 7741



Награды: Нет

Торрент-статистика

Создавать темы 10-Фев-2016 00:08

[Цитировать]

Жена путешественника во времени
Выпущено: США, Industry Entertainment, New Line Cinema, Plan B Entertainment
Жанр: Фантастика, фэнтези, драма, мелодрама, экранизация
Год выпуска: 2009
Продолжительность: 01:47:25
Перевод #1: Профессиональный (дублированный) Мосфильм-Мастер
Перевод #2: Авторский (одноголосый закадровый) Ю. Сербин
Оригинальная аудиодорожка: Нет
Cубтитры: Нет
Режиссёр: Роберт Швентке / Robert Schwentke
В ролях: Мишель Нолден, Алекс Феррис, Арлисс Ховард, Эрик Бана, Кэтерин Троуэлл, Барт Бедфорд, Эстер Джан, Мэтт Бирман, Крэйг Снойер, Рэйчел МакАдамс, Карли Стрит, Ромен Тангсубутра, Бруклин Пру, Джейн МакЛин, Рон Ливингстон, Брайан Биссон
Описание: Они познакомились, когда ей было шесть, а ему — тридцать шесть. Они поженились, когда ей было двадцать три, а ему тридцать один. Потому что Генри страдает редким генетическим заболеванием — синдромом перемещения во времени; его исчезновения из жизни Клэр непредсказуемы, появления — комичны, травматичны и трагичны одновременно. Экранизация одноимённого романа - Одри Ниффенеггер.

Качество видео: BDRip [Исходник: Blu-ray Remux (1080p) от HDTracker]
Формат видео: AVI
Видео: XviD, 720x304 (2.35:1), 1829 Кбит/с, 23.976 кадр/с, 0.348 bit/pixel
Аудио #1: Русский, Dolby AC3, 48000 Гц, 448 Кбит/с, 6 каналов (5.1) - DUB [Мосфильм-Мастер]
Аудио #2: Русский, Dolby AC3, 48000 Гц, 448 Кбит/с, 6 каналов (5.1) - AVO [Ю. Сербин]

Автор рипа - ivandubskoj

MediaInfo

General
Complete name : The.Time.Traveler's.Wife.2009.Dual.BDRip.avi
Format : AVI
Format/Info : Audio Video Interleave
Format profile : OpenDML
File size : 2.05 GiB
Duration : 1h 47mn
Overall bit rate : 2 739 Kbps
Writing application : VirtualDubMod 1.5.10.3 | www.virtualdub-fr.org || (build 2550/release)
Writing library : VirtualDubMod build 2550/release
Copyright : rip by ivandubskoj
Video
ID : 0
Format : MPEG-4 Visual
Format profile : Advanced Simple@L5
Format settings, BVOP : 1
Format settings, QPel : No
Format settings, GMC : No warppoints
Format settings, Matrix : Custom
Codec ID : XVID
Codec ID/Hint : XviD
Duration : 1h 47mn
Bit rate : 1 829 Kbps
Width : 720 pixels
Height : 304 pixels
Display aspect ratio : 2.35:1
Frame rate : 23.976 fps
Color space : YUV
Chroma subsampling : 4:2:0
Bit depth : 8 bits
Scan type : Progressive
Compression mode : Lossy
Bits/(Pixel*Frame) : 0.348
Stream size : 1.37 GiB (67%)
Writing library : XviD 73
Audio #1
ID : 1
Format : AC-3
Format/Info : Audio Coding 3
Mode extension : CM (complete main)
Codec ID : 2000
Duration : 1h 47mn
Bit rate mode : Constant
Bit rate : 448 Kbps
Channel(s) : 6 channels
Channel positions : Front: L C R, Side: L R, LFE
Sampling rate : 48.0 KHz
Bit depth : 16 bits
Compression mode : Lossy
Stream size : 344 MiB (16%)
Alignment : Split accross interleaves
Interleave, duration : 64 ms (1.53 video frames)
Interleave, preload duration : 500 ms
Title : Russian, DUB [Мосфильм-Мастер]
Audio #2
ID : 2
Format : AC-3
Format/Info : Audio Coding 3
Mode extension : CM (complete main)
Codec ID : 2000
Duration : 1h 47mn
Bit rate mode : Constant
Bit rate : 448 Kbps
Channel(s) : 6 channels
Channel positions : Front: L C R, Side: L R, LFE
Sampling rate : 48.0 KHz
Bit depth : 16 bits
Compression mode : Lossy
Stream size : 344 MiB (16%)
Alignment : Split accross interleaves
Interleave, duration : 64 ms (1.53 video frames)
Interleave, preload duration : 500 ms
Title : Russian, AVO [Ю. Сербин]

Скриншот c названием фильма

Скриншоты

[Профиль] [ЛС]

Создавать темы 12-Июн-2016 07:56 (спустя 4 месяца 2 дня)

Топик был перенесен из форума Фильмы 2011 года в форум Фильмы 2009 года
Russian Mafia
 
Кто просматривает тему:

Показать сообщения:    

Текущее время: Сегодня 12:14

Часовой пояс: GMT



Вы не можете начинать темы
Вы не можете отвечать на сообщения
Вы не можете редактировать свои сообщения
Вы не можете удалять свои сообщения
Вы не можете голосовать в опросах
Вы не можете прикреплять файлы к сообщениям
Вы не можете скачивать файлы