Жена полицейского (Александр Соловьёв (II)) (1-16 из 16) [2017, Детектив, драма, HDTVRip]

 
Автор Сообщение

Pensioner ®

Стаж: 9 месяцев 26 дней

Сообщений: 252

Откуда: Казахстан



Награды: 1 (Подробнее)

За внесенный вклад в развитие сайта (Количество: 1)
Торрент-статистика

Создавать темы 06-Сен-2017 15:35

[Цитировать]

Название: Жена полицейского
Год выпуска: 2017
Страна: Россия, «Мастерская Павла Лунгина»
Жанр: Детектив, драма
Продолжительность: х ~ 00:45:00
Перевод: Не требуется
Режиссёр: Александр Соловьёв (II)
В ролях: Виктория Толстоганова, Виталий Кищенко, Сергей Удовик, Лукерья Ильяшенко, Юрий Кузнецов, Алла Малкова, Михаил Куряев, Станислав Беляев, Юлия Соломатина, Ольга Виниченко, Антон Батырев, Евгений Потапенко, Роман Колотухин, Василий Мичков, Алексей Маслодудов
Описание: Лера Валецкая - счастливая домохозяйка, полностью посвятившая себя детям и любимому супругу Виктору, майору полиции. Но размеренной, спокойной жизни приходит конец, когда Лера узнает, что ее супруг вовсе не тот, за кого себя выдает. Оказывается, Виктор давно проворачивает незаконные дела и фактически ведет двойную жизнь. Увидеть истинное лицо любимого человека Лере помогает молодой оперативник Глеб Смыслов. С этого момента многолетняя семейная идиллия начинает рушиться словно карточный домик. Валецким предстоит решить: готовы ли они, несмотря ни на что, остаться семьей и попробовать начать все сначала. Кроме того, вскоре супругов ожидает еще одна, не менее тяжелая проверка на прочность...
Файл:
Качество: HDTVRip
Формат: AVI
Видео кодек: XviD
Аудио кодек: AC3
Видео: ~ 1650 Кбит/с, 720x400
Аудио: 2 ch, 192 Кбит/с
Доп. информация:

Внимание! Раздача ведётся путём добавления новых серий

Раздача ведётся путём добавления новых серий, при каждом добавлении создаётся новый торрент. Чтобы начать докачку новой серии, пользователям необходимо сделать следующее:
- Остановить скачивание.
- Удалить старый торрент у себя из клиента (старые серии удалять не надо).
- Скачать новый торрент и запустить его у себя в клиенте вместо старого, при этом указать клиенту путь в старую папку куда и должно происходить скачивание новых серий.
Ваш клиент при этом должен произвести хеширование (проверку) старой папки (если не производит сам - помогите ему сделать это), и будет докачивать только те серии которых у вас ещё нет. Старые серии при этом не удаляются, а продолжают раздаваться!
Если вы уже удалили старые серии, то предотвратить повторную закачку старых серий можно, отжав галочку в соответствующих местах при запуске нового торрента. По возможности, желательно не удалять старые серии как можно дольше, чтобы релизер не столько продолжал раздавать старые серии, а смог сконцентрироваться на новых.

MediaInfo

Общее
Полное имя : D:\моё видио\Жена полицейскогo.2017.HDTVRip.Files-x\01.Жена полицейскогo.2017.HDTVRip.Files-x.avi
Формат : AVI
Формат/Информация : Audio Video Interleave
Размер файла : 648 Мбайт
Продолжительность : 51 м.
Общий поток : 1770 Кбит/сек
Программа кодирования : VirtualDubMod 1.5.10.3 | www.virtualdub-fr.org || (build 2550/release)
Библиотека кодирования : VirtualDubMod build 2550/release
Видео
Идентификатор : 0
Формат : MPEG-4 Visual
Профиль формата : Advanced Simple@L5
Параметр BVOP формата : 1
Параметр QPel формата : Нет
Параметр GMC формата : Без точки перехода
Параметр матрицы формата : Выборочная
Идентификатор кодека : XVID
Идентификатор кодека/Подсказка : XviD
Продолжительность : 51 м.
Битрейт : 1568 Кбит/сек
Ширина : 720 пикселей
Высота : 400 пикселей
Соотношение сторон : 16:9
Частота кадров : 25,000 кадров/сек
Цветовое пространство : YUV
Субдискретизация насыщенности : 4:2:0
Битовая глубина : 8 бит
Тип развёртки : Прогрессивная
Метод сжатия : С потерями
Бит/(Пиксели*Кадры) : 0.218
Размер потока : 574 Мбайт (89%)
Библиотека кодирования : XviD 73
Аудио
Идентификатор : 1
Формат : AC-3
Формат/Информация : Audio Coding 3
Расширение режима : CM (complete main)
Параметр Endianness формата : Big
Идентификатор кодека : 2000
Продолжительность : 51 м.
Вид битрейта : Постоянный
Битрейт : 192 Кбит/сек
Каналы : 2 канала
Расположение каналов : Front: L R
Частота : 48,0 КГц
Битовая глубина : 16 бит
Метод сжатия : С потерями
Размер потока : 70,3 Мбайт (11%)
Выравнивание : Разделение по промежуткам
Продолжительность промежутка : 40 мс. (1,00 видеокадр)
Время предзагрузки промежутка : 500 мс.

Скриншоты

Добавлены 1-16 серии.


Последний раз редактировалось: Pensioner (2017-09-15 11:35), всего редактировалось 4 раз(а)
[Профиль] [ЛС]

Pensioner ®

Стаж: 9 месяцев 26 дней

Сообщений: 252

Откуда: Казахстан



Награды: 1 (Подробнее)

За внесенный вклад в развитие сайта (Количество: 1)
Торрент-статистика

Создавать темы 12-Сен-2017 08:56 (спустя 5 дней)

[Цитировать]

Добавлены 9-10 серии.
[Профиль] [ЛС]

Pensioner ®

Стаж: 9 месяцев 26 дней

Сообщений: 252

Откуда: Казахстан



Награды: 1 (Подробнее)

За внесенный вклад в развитие сайта (Количество: 1)
Торрент-статистика

Создавать темы 15-Сен-2017 11:40 (спустя 3 дня)

[Цитировать]

Добавлены 11-16 серии.
[Профиль] [ЛС]
Кто просматривает тему:

Показать сообщения:    

Текущее время: Сегодня 02:03

Часовой пояс: GMT



Вы не можете начинать темы
Вы не можете отвечать на сообщения
Вы не можете редактировать свои сообщения
Вы не можете удалять свои сообщения
Вы не можете голосовать в опросах
Вы не можете прикреплять файлы к сообщениям
Вы не можете скачивать файлы