Желтоглазые крокодилы / Les yeux jaunes des crocodiles (Сесиль Телерман / Cécile Telerman) [2014, Франция, драма, HDRip] MVO

 
Автор Сообщение

TorrentFilm ®

Пол:

Стаж: 2 года

Сообщений: 7741



Награды: Нет

Торрент-статистика

Создавать темы 08-Янв-2015 00:15

[Цитировать]

Желтоглазые крокодилы / Les yeux jaunes des crocodiles
Страна: Франция
Жанр: драма
Год выпуска: 2014
Продолжительность: 02:02:58
Перевод: Профессиональный (многоголосый закадровый)
Cубтитры: нет
Оригинальная аудиодорожка: нет
Режиссер: Сесиль Телерман / Cécile Telerman
В ролях: Жюли Депардье, Эммануэль Беар, Патрик Брюэль, Alice Isaaz, Жак Вебер, Кароль Роше, Эдит Скоб, Самюэль Ле Бьян, Ким Гутьеррес, Яна Биттнерова
Описание: Две сестры — полная противоположность друг другу. 40-летняя Жозефина занимается изучением средневековой Франции и воспитывает дочерей. Ее муж, хронический безработный, внезапно отправляется с молодой любовницей разводить крокодилов в Кении. Ее сестра Ирис, напротив, светская женщина, красавица, удачно вышедшая замуж. Однажды, чтобы пустить пыль в глаза, она солгала, что пишет роман про 12 век. Вынужденная выкручиваться из ситуации, она предлагает Жозефине, которой очень нужны деньги, написать роман за нее. Никто из них не мог предположить, что книга станет национальным бестселлером…

Качество видео: HDRip (Исх. BDRip 720p)
Формат видео: AVI
Видео: 624x336 (1.86:1), 23.976 fps, XviD build 73 ~710 kbps avg, 0.14 bit/pixel
Аудио: 48 48 kHz, MPEG Layer 3, 2 ch, ~128.00 kbps avg

MediaInfo

Общее
Полное имя : S:ФильмыЖелтоглазые крокодилы. 2014. HDRip (AleksSin).avi
Формат : AVI
Формат/Информация : Audio Video Interleave
Размер файла : 745 Мбайт
Продолжительность : 2 ч. 2 м.
Общий поток : 847 Кбит/сек
Программа кодирования : VirtualDubMod 1.5.10.3 | www.virtualdub-fr.org || (build 2550/release)
Библиотека кодирования : VirtualDubMod build 2550/release
Видео
Идентификатор : 0
Формат : MPEG-4 Visual
Профиль формата : Advanced Simple@L5
Параметр BVOP формата : 1
Параметр QPel формата : Нет
Параметр GMC формата : Без точки перехода
Параметр матрицы формата : Выборочная
Идентификатор кодека : XVID
Идентификатор кодека/Подсказка : XviD
Продолжительность : 2 ч. 2 м.
Битрейт : 710 Кбит/сек
Ширина : 624 пикс.
Высота : 336 пикс.
Соотношение сторон : 1,857
Частота кадров : 23,976 кадр/сек
Цветовое пространство : YUV
Подвыборка цветности : 4:2:0
Битовая глубина : 8 бит
Тип развёртки : Прогрессивная
Метод сжатия : С потерями
Бит/(Пиксели*Кадры) : 0.141
Размер потока : 624 Мбайт (84%)
Библиотека кодирования : XviD 73
Аудио
Идентификатор : 1
Формат : MPEG Audio
Версия формата : Version 1
Профиль формата : Layer 3
Идентификатор кодека : 55
Идентификатор кодека/Подсказка : MP3
Продолжительность : 2 ч. 2 м.
Вид битрейта : Постоянный
Битрейт : 128 Кбит/сек
Каналы : 2 канала
Частота : 48,0 КГц
Метод сжатия : С потерями
Размер потока : 113 Мбайт (15%)
Выравнивание : Соединение по промежуткам
Продолжительность промежутка : 42 мс. (1,00 видеокадр)
Время предзагрузки промежутка : 504 ms
Библиотека кодирования : LAME3.99r
Настройки программы : -m s -V 4 -q 2 -lowpass 17 -b 128

Скриншот c названием фильма

Скриншоты

[Профиль] [ЛС]
Показать сообщения:    

Текущее время: Сегодня 03:23

Часовой пояс: GMT



Вы не можете начинать темы
Вы не можете отвечать на сообщения
Вы не можете редактировать свои сообщения
Вы не можете удалять свои сообщения
Вы не можете голосовать в опросах
Вы не можете прикреплять файлы к сообщениям
Вы не можете скачивать файлы