Железобетон / Cemento Armato (Марко Мартани / Marco Martani) [2007, Италия, драма, криминал, триллер, DVDRip] VO (Paul B.) + Original Ita

 
Автор Сообщение

TorrentFilm ®

Пол:

Стаж: 2 года

Сообщений: 7741



Награды: Нет

Торрент-статистика

Создавать темы 28-Дек-2014 00:30

[Цитировать]

Железобетон / Cemento Armato
Страна: Италия
Жанр: драма, криминал, триллер
Год выпуска: 2007
Продолжительность: 01:38:52
Перевод: Одноголосый закадровый Paul B.
Cубтитры: нет
Оригинальная аудиодорожка: итальянский
Режиссер: Марко Мартани / Marco Martani
В ролях: Николас Вапоридис, Джорджо Фалетти, Каролина Крешентини, Дарио Кассини, Альфредо Пиа, Тамисанка Молепо, Маттео Урциа, Мария Пайато, Валон Раткочери, Паоло Бернардини, Фабио Камилли, Пьетро Рагуза, Джироламо Альчьери, Стефано Антонуччи
Описание: Молодой и беспечный хулиган Диего живёт со своей девушкой Азией, промышляет мелкими кражами и мошенничеством и, разъезжая на краденом скутере, попутно развлекается тем, что сбивает ногой зеркала со встречных машин. Но однажды он сбивает зеркало с автомобиля римского криминального босса Франко Зорзи по прозвищу "Шеф"...

Сэмпл: http://multi-up.com/1020169
Качество видео: DVDRip
Формат видео: MKV
Видео: MPEG-4 Visual, V_MS/VFW/FOURCC / XVID, 640x272, 2,35:1, 25 fps, 827 kbps
Аудио: MP3, 48 KHz, 192 kbps, 2 ch
Аудио 2: MP3, 48 Kz, 128 kbps, 2 ch

MediaInfo

Уникальный идентификатор : 250119252007529741539965232173201433562 (0xBC2B3738D46D8C70A027AE1C071F23DA)
Полное имя : D:\My Video\Crime\Cemento Armato\Zhelezobeton_ 2007_DVDRip.mkv
Формат : Matroska
Версия формата : Version 4 / Version 2
Размер файла : 829 Мбайт
Продолжительность : 1 ч. 39 м.
Режим общего битрейта : Переменный
Общий поток : 1170 Кбит/сек
Дата кодирования : UTC 2014-11-21 00:34:38
Программа кодирования : mkvmerge v7.3.0 ('Nouages') 32bit built on Oct 22 2014 18:44:01
Библиотека кодирования : libebml v1.3.0 + libmatroska v1.4.1
DURATION : 01:39:00.504000000
NUMBER_OF_FRAMES : 247521
NUMBER_OF_BYTES : 142572096
_STATISTICS_WRITING_APP : mkvmerge v7.3.0 ('Nouages') 32bit built on Oct 22 2014 18:44:01
_STATISTICS_WRITING_DATE_UTC : 2014-11-21 00:34:38
_STATISTICS_TAGS : BPS DURATION NUMBER_OF_FRAMES NUMBER_OF_BYTES
Видео
Идентификатор : 1
Формат : MPEG-4 Visual
Профиль формата : Advanced Simple@L5
Параметр BVOP формата : 2
Параметр QPel формата : Нет
Параметр GMC формата : Без точки перехода
Параметр матрицы формата : Default (H.263)
Идентификатор кодека : V_MS/VFW/FOURCC / XVID
Идентификатор кодека/Подсказка : XviD
Продолжительность : 1 ч. 39 м.
Битрейт : 827 Кбит/сек
Ширина : 640 пикселей
Высота : 272 пикселя
Соотношение сторон : 2,35:1
Режим частоты кадров : Постоянный
Частота кадров : 25,000 кадров/сек
Цветовое пространство : YUV
Субдискретизация насыщенности : 4:2:0
Битовая глубина : 8 бит
Тип развёртки : Прогрессивная
Метод сжатия : С потерями
Бит/(Пиксели*Кадры) : 0.190
Размер потока : 586 Мбайт (71%)
Заголовок : Cemento_Armato_mpeg4_XVID(12 bits)_640x272(2:35:1/2:35:1)_FPS:25_BitRate:19.8 kbps
Библиотека кодирования : XviD 1.1.2 (UTC 2006-11-01)
Язык : Russian
Default : Да
Forced : Нет
Аудио #1
Идентификатор : 2
Формат : MPEG Audio
Версия формата : Version 1
Профиль формата : Layer 3
Режим : Joint stereo
Расширение режима : MS Stereo
Идентификатор кодека : A_MPEG/L3
Идентификатор кодека/Подсказка : MP3
Продолжительность : 1 ч. 39 м.
Вид битрейта : Постоянный
Битрейт : 192 Кбит/сек
Каналы : 2 канала
Частота : 48,0 КГц
Метод сжатия : С потерями
Размер потока : 136 Мбайт (16%)
Заголовок : Cemento_Armato_MP3: 48kHz_192 kbps_Paul_B.
Язык : Russian
Default : Да
Forced : Нет
Аудио #2
Идентификатор : 3
Формат : MPEG Audio
Версия формата : Version 1
Профиль формата : Layer 3
Режим : Joint stereo
Расширение режима : MS Stereo
Идентификатор кодека : A_MPEG/L3
Идентификатор кодека/Подсказка : MP3
Продолжительность : 1 ч. 41 м.
Вид битрейта : Переменный
Битрейт : 128 Кбит/сек
Каналы : 2 канала
Частота : 48,0 КГц
Метод сжатия : С потерями
Размер потока : 92,8 Мбайт (11%)
Заголовок : Cemento_Armato_WAV_48kHz_131kbps
Библиотека кодирования : LAME3.90.
Настройки программы : -m j -V 4 -q 2 -lowpass 17.6 --abr 128
Язык : Italian
Default : Нет
Forced : Нет

Скриншот c названием фильма

Скриншоты

[Профиль] [ЛС]

Создавать темы 06-Авг-2015 22:53 (спустя 7 месяцев 9 дней)

Топик был перенесен из форума Фильмы до 2014 года в форум Фильмы до 2012 года
sergej644
 
Кто просматривает тему:

Форум Тема Автор Размер
Metal (Heavy Metal) Круиз - Железный Рок (Remastered, 2013) - 1987 | 2013 [FLAC, tracks+.cue, lossless] sergej644 428 MB
BBC BBC: Большое железнодорожное путешествие по континенту / Great Continental Railway Journeys [сезон 4 серии 1-6 из 6] (Dave Minchin) [2015 г., Документальный, история, путешествия, HDTVRip 720p] skorpionN 8.85 GB
BBC BBC: Веллингтон - железный герцог без маски / Wellington: The Iron Duke Unmasked (Richard Sanders) [2015 г., Документальный, история, биографический, HDTVRip 720p] skorpionN 1.17 GB
BBC BBC: Кельты: Кровью и железом с Элис Робертс и Нилом Оливером / The Celts: Blood, Iron and Sacrifice with Alice Roberts and Neil Oliver [серии 1-3 из 3] (Jeremy Hall) [2015 г., Документ... skorpionN 4.16 GB
Viasat History Viasat History: BBC: Железные дороги в годы Первой мировой войны / Michael Portillo's Railways of the Great War [серии 1-5 из 5] (Tom Richardson) [2014 г., Документальный, история, HDTVRip 720p] skorpionN 3.72 GB
BBC Viasat History: Кельты: Кровью и железом с Элис Робертс и Нилом Оливером / The Celts: Blood, Iron and Sacrifice with Alice Roberts and Neil Oliver [серии 1-3 из 3] (Jeremy Hal... skorpionN 2.69 GB
Viasat History Viasat History: По железным дорогам бывшей империи / On the Rails of the Double Headed Eagle [серии 1-2 из 2] (Björn Kölz и Gernot Stadler) [2014 г., Документальный, история, путешествия, SATRip] skorpionN 1.45 GB
Документальные HD Большое железнодорожное путешествие по континенту / BBC. Great Continental Railway Journeys (1 сезон) [2012, документальный, история, HDTVRip 720p] TorrentFilm 8.77 GB
Показать сообщения:    

Текущее время: Сегодня 06:06

Часовой пояс: GMT



Вы не можете начинать темы
Вы не можете отвечать на сообщения
Вы не можете редактировать свои сообщения
Вы не можете удалять свои сообщения
Вы не можете голосовать в опросах
Вы не можете прикреплять файлы к сообщениям
Вы не можете скачивать файлы