Железный человек 2 / Iron Man 2 (Джон Фавро / Jon Favreau) [2010, США, фантастика, боевик, BDRip] Dub + Sub (Rus) + Original Eng

 
Автор Сообщение

painkiller ®

Стаж: 2 года 10 месяцев

Сообщений: 582



Награды: Нет

Торрент-статистика

Создавать темы 14-Авг-2014 13:00

[Цитировать]

Железный человек 2 / Iron Man 2
«It's not the armor that makes the hero, but the man inside»
- Страна: США
Жанр: фантастика, боевик
Год выпуска: 2010
Продолжительность: 02:04:39
Перевод: Профессиональный (дублированный)
Cубтитры: Russian (внешние*)
+ Оригинальная аудиодорожка: English-Режиссер:
Джон Фавро / Jon Favreau-В ролях:
Роберт Дауни мл., Дон Чидл, Скарлетт Йоханссон, Гвинет Пэлтроу, Сэм Рокуэлл, Микки Рурк, Сэмюэл Л. Джексон, Кларк Грегг, Джон Слэттери, Джон Фавро.-Описание:
Прошло полгода с тех пор, как мир узнал, что миллиардер-изобретатель Тони Старк является обладателем уникальной кибер-брони Железного человека. Общественность требует, чтобы Старк передал технологию брони правительству США, но Тони не хочет разглашать её секреты, потому что боится, что она попадёт не в те руки. Между тем, Иван Ванко — сын русского учёного когда-то работавшего на фирму Старка, но потом уволенного и лишенного всего, намерен отомстить Тони за беды своей семьи. Для чего сооружает своё высокотехнологичное оружие.-Сэмпл | КиноПоиск | IMDb- Качество видео: BDRip |
Формат видео: AVI
Видео: 720x304 (2.37:1), 23.976 fps, XviD build 65 ~1278 kbps avg, 0.243 bit/pixel
Аудио #1: 48.0 kHz, AC3 Dolby Digital, 3/2 (L,C,R,l,r) + LFE ch, ~384 kbps | DUB
Аудио #2: 48.0 kHz, AC3 Dolby Digital, 3/2 (L,C,R,l,r) + LFE ch, ~384 kbps | ENG (отдельно)
Формат субтитров: softsub (SRT*)
Размер: 1489.89 Mb (1/3 DVD-R)
-

MediaInfo

Общее
Полное имя : A:\Фильмы\Iron_Man_2._2010г.BDRip.XviD.1.45GB.AC3.avi
Формат : AVI
Формат/Информация : Audio Video Interleave
Размер файла : 1,45 Гбайт
Продолжительность : 2 ч. 4 м.
Общий поток : 1671 Кбит/сек
Программа кодирования : VirtualDubMod 1.5.10.2 (build 2540/release)
Библиотека кодирования : VirtualDubMod build 2540/release
Видео
Идентификатор : 0
Формат : MPEG-4 Visual
Профиль формата : Advanced Simple@L5
Параметр BVOP формата : 1
Параметр QPel формата : Нет
Параметр GMC формата : Без точки перехода
Параметр матрицы формата : Выборочная
Идентификатор кодека : XVID
Идентификатор кодека/Подсказка : XviD
Продолжительность : 2 ч. 4 м.
Битрейт : 1278 Кбит/сек
Ширина : 720 пикселей
Высота : 304 пикселя
Соотношение сторон : 2,37:1
Частота кадров : 23,976 кадра/сек
Цветовое пространство : YUV
Субдискретизация насыщенности : 4:2:0
Битовая глубина : 8 бит
Тип развёртки : Прогрессивная
Метод сжатия : С потерями
Бит/(Пиксели*Кадры) : 0.243
Размер потока : 1,11 Гбайт (76%)
Библиотека кодирования : XviD 65
Аудио
Идентификатор : 1
Формат : AC-3
Формат/Информация : Audio Coding 3
Расширение режима : CM (complete main)
Параметр Endianness формата : Big
Идентификатор кодека : 2000
Продолжительность : 2 ч. 4 м.
Вид битрейта : Постоянный
Битрейт : 384 Кбит/сек
Каналы : 6 каналов
Расположение каналов : Front: L C R, Side: L R, LFE
Частота : 48,0 КГц
Битовая глубина : 16 бит
Метод сжатия : С потерями
Размер потока : 342 Мбайт (23%)
Выравнивание : Разделение по промежуткам
Продолжительность промежутка : 42 мс. (1,00 видеокадр)
Время предзагрузки промежутка : 500 мс.

Скриншот c названием фильма

Скриншоты

[Профиль] [ЛС]

Создавать темы 06-Авг-2015 23:14 (спустя 11 месяцев 23 дня)

Топик был перенесен из форума Фильмы до 2014 года в форум Фильмы до 2012 года
sergej644
 

Создавать темы 12-Июн-2016 07:54 (спустя 1 год 9 месяцев)

Топик был перенесен из форума Фильмы 2011 года в форум Фильмы 2010 года
Russian Mafia
 
Показать сообщения:    

Текущее время: Сегодня 10:40

Часовой пояс: GMT



Вы не можете начинать темы
Вы не можете отвечать на сообщения
Вы не можете редактировать свои сообщения
Вы не можете удалять свои сообщения
Вы не можете голосовать в опросах
Вы не можете прикреплять файлы к сообщениям
Вы не можете скачивать файлы