Железный рыцарь 2 / Ironclad: Battle for Blood (2014) BDRip [1080p] [Line]

 
Автор Сообщение

sergej644 ®

Пол:

Стаж: 4 года 11 месяцев

Сообщений: 6038

Откуда: Soviet Union



Награды: Нет

Торрент-статистика

Создавать темы 02-Авг-2014 20:19

[Цитировать]

-Железный рыцарь 2 / Ironclad: Battle for Blood (2014) BDRip- Год выпуска: 2014
Производство: Великобритания - Gloucester Place Films, International Pictures One, Mythic International Entertainment
Жанр: Боевик, приключения
Перевод: Дублированный |Line, студия Пифагор|
Субтитры: Вшитые отключаемые
Язык субтитров: Немецкий
Режиссер: Джонатан Инглиш / Jonathan English
Продюсер: Рик Бенаттар, Эндрю Дж. Кертис, Джонатан Инглиш
Актеры: Том Остин, Том Рис Харрис, Роксанна МакКи, Дэниэл Уэбб, Рози Дэй, Дэвид Кэйвс, Энди Беквит, Твинни Ли Мур, Предраг Бьелак, Мишель Фэйрли
Описание фильма:
Главный герой, выживший после Великой осады Рочестерского замка, охраняет свой народ от кельтских захватчиков.

Дата мировой премьеры: 14 марта 2014
Дата российской премьеры: 12 июня 2014, «West»
Продолжительность: 01:48:06
Качество видео: BDRip 1080p (Rip: ollan)
Видео: MPEG-4 AVC/H.264, 13.6 Мбит/с, 1920x816, 23.976 кадр/с
Аудио #1: Русский: AC3, 2.0, 384 Кбит/с, 48kHz, 16 bit
Аудио #2: Английский: DTS, 5.1, 1509 Кбит/с, 48 kHz, 24 bit
Сохранены оригинальные чаптеры как на Blu-Ray

MediaInfo:

Общее
Уникальный идентификатор : 223531270327506955195066830191733829570 (0xA82A8E8417979F508BCB06ECA09CEFC2)
Полное имя : D:\Video\Ironclad.Battle.For.Blood.2014.x264.BDRip.1080p.mkv
Формат : Matroska
Версия формата : Version 2
Размер файла : 11,7 Гбайт
Продолжительность : 1 ч. 48 м.
Общий поток : 15,4 Мбит/сек
Название фильма : Железный рыцарь II.2014.Rip by: ollan
Дата кодирования : UTC 2014-07-11 04:36:57
Программа кодирования : mkvmerge v5.6.0 ('Kenya Kane') built on May 27 2012 16:44:04
Библиотека кодирования : libebml v1.2.3 + libmatroska v1.3.0
Видео
Идентификатор : 1
Формат : AVC
Формат/Информация : Advanced Video Codec
Профиль формата : [url=mailto:High@L4.1]High@L4.1[/url]
Параметр CABAC формата : Да
Параметр ReFrames формата : 5 кадров
Идентификатор кодека : V_MPEG4/ISO/AVC
Продолжительность : 1 ч. 48 м.
Битрейт : 13,6 Мбит/сек
Ширина : 1920 пикселей
Высота : 816 пикселей
Соотношение сторон : 2,35:1
Режим частоты кадров : Постоянный
Частота кадров : 23,976 кадра/сек
Цветовое пространство : YUV
Субдискретизация насыщенности : 4:2:0
Битовая глубина : 8 бит
Тип развёртки : Прогрессивная
Бит/(Пиксели*Кадры) : 0.361
Размер потока : 10,0 Гбайт (86%)
Библиотека кодирования : x264 core 125 r2200 999b753
Настройки программы : cabac=1 / ref=5 / deblock=1:-3:-3 / analyse=0x3:0x133 / me=umh / subme=11 / psy=1 / psy_rd=1.00:0.10 / mixed_ref=1 / me_range=32 / chroma_me=1 / trellis=2 / 8x8dct=1 / cqm=0 / deadzone=21,11 / fast_pskip=0 / chroma_qp_offset=-3 / threads=12 / lookahead_threads=2 / sliced_threads=0 / nr=0 / decimate=0 / interlaced=0 / bluray_compat=0 / constrained_intra=0 / bframes=9 / b_pyramid=2 / b_adapt=2 / b_bias=0 / direct=3 / weightb=1 / open_gop=0 / weightp=2 / keyint=240 / keyint_min=23 / scenecut=40 / intra_refresh=0 / rc_lookahead=40 / rc=2pass / mbtree=1 / bitrate=13555 / ratetol=1.0 / qcomp=0.60 / qpmin=0 / qpmax=69 / qpstep=4 / cplxblur=20.0 / qblur=0.5 / ip_ratio=1.40 / aq=1:1.00
Язык : English
Default : Да
Forced : Нет
Аудио #1
Идентификатор : 2
Формат : AC-3
Формат/Информация : Audio Coding 3
Расширение режима : CM (complete main)
Параметр Endianness формата : Big
Идентификатор кодека : A_AC3
Продолжительность : 1 ч. 48 м.
Вид битрейта : Постоянный
Битрейт : 384 Кбит/сек
Каналы : 2 канала
Расположение каналов : Front: L R
Частота : 48,0 КГц
Битовая глубина : 16 бит
Метод сжатия : С потерями
Размер потока : 297 Мбайт (2%)
Заголовок : Дублированный (Чистый звук)
Язык : Russian
Default : Да
Forced : Нет
Аудио #2
Идентификатор : 3
Формат : DTS
Формат/Информация : Digital Theater Systems
Режим : 16
Параметр Endianness формата : Big
Идентификатор кодека : A_DTS
Продолжительность : 1 ч. 48 м.
Вид битрейта : Постоянный
Битрейт : 1509 Кбит/сек
Каналы : 6 каналов
Расположение каналов : Front: L C R, Side: L R, LFE
Частота : 48,0 КГц
Битовая глубина : 24 бит
Метод сжатия : С потерями
Размер потока : 1,14 Гбайт (10%)
Язык : English
Default : Нет
Forced : Нет
Текст
Идентификатор : 4
Формат : UTF-8
Идентификатор кодека : S_TEXT/UTF8
Идентификатор кодека/Информация : UTF-8 Plain Text
Язык : German
Default : Нет
Forced : Нет
Меню
00:00:00.000 : en:Chapter 01
00:09:09.757 : en:Chapter 02
00:20:29.311 : en:Chapter 03
00:29:53.541 : en:Chapter 04
00:43:39.450 : en:Chapter 05
00:55:29.743 : en:Chapter 06
01:04:45.631 : en:Chapter 07
01:14:50.611 : en:Chapter 08
01:28:48.948 : en:Chapter 09
01:36:51.472 : en:Chapter 10

Рецензия:

Кровная месть
Первый фильм, в своё время, был настоящим приятным сюрпризом. Его трейлеры вызывали недоумение и выглядели «сериальными», а на деле кино оказалась очень приличным и с мощными актёрскими работами. Сиквел же действительно вышел слабее: хорошего каста, как не бывало, эффекты стали беднее, больше никаких катапульт, и даже сцены отсечения голов и прочего насилия, в основном где-то за кадром, хотя в картине по-прежнему море текущей крови и убийств, а также стало больше женской обнажёнки (компенсирующей вялую батальную зрелищность хоть какими-то визуальными прелестями и достоинствами).
Удивительное дело, почти весь актёрский состав, от героев до злодеев, напрочь лишён какой-либо харизмы. Каст здесь по-просту совсем уж сериальный и маловыразительный: Том Остин, Дэниел Уэбб, Предраг Бьелак, есть даже Кейтилин Старк из «Игры Престолов» — Мишель Фэйрли, причём абсолютно в той же роли жены одного северного лорда. Но при этом героев и злодеев спасают отлично прописанные монологи и мотивации, они замечательно раскрываются в текстах и речах, хоть и мало выразительны в бою. А также младшая из двух принцесс по-настоящему приятная и симпатичная.
Фильм, вообще, сделан, в целом, по традициям Джорджа Мартина: мрущие, как мухи, главные центральные персонажи, (внезапно встречающие свою кончину, хотя по закону жанра обычно такая «разномастная команда наёмников» выживает практически без потерь), раскрытая тема инцест-любви (главный герой, племянник лорда, мутит с одной из принцесс-дочерей, которая ему сводная сестра или что-то в этом роде), сиськи и насилие в немалых дозах. Мог бы выйти отличный исторический теле-сериал. А вот смотреть ли вторую часть в кино — вопрос немного спорный, всё же до уровня удивившего первого фильма, повторюсь, не дотягивает.
При скромной визуальной реализации, в фильме хочется хвалить общий сценарий и диалоги, лишь подчёркивая эту «сериальность» происходящего. Массовки маловато, всем персонажем раскрыться некгогда, но всё же создатели стараются уделить должное внимание всем героям этой заварушки. Лучше всего получились Палач, выступающий на стороне англичан, среди наёмников, и воин по кличке Огр из шотландцев, осаждающих замок. Хотя от бугая по кличке «огр» хотелось бы чего-то ещё более жуткого, классного грима с уродствами или ожёгами, какие-нибудь татуировки или кольца пирсингов, ужасные шрамы, что-то ещё более градиозное от его внешнего вида, нежели просто крупный лысый «рестлер», атакующий длиноволосых «металлистов» англичан.
Кровавая натуралистичность под звуки режущей кости пилы, демонстрирует отрубленные головы и вырезанные глаза, однако сам процесс всех этих зверств остаётся в тени. Камера почти не фиксирует сами убийства, мимолётно останавливаясь на последствиях да текущей/хлещущей крови. Камера регулярно трясётся во время схваток, но не настолько эпилептически, чтобы нельзя было ничего рассмотреть, передавая общую суматоху битвы. Джонатан Инглиш далеко не лучший постановщик, но возится со своими рыцарями с заядлым рвением, небось даже снимет третью часть уже про Столетнюю Войну, на что намекает концовка второго фильма.
7 ИЗ 10
Скриншоты:
Время раздачи: с 10:00 до 20:00 (GMT+2) - до 10 скачавшихНе забываем говорить
[Профиль] [ЛС]
Кто просматривает тему:

Форум Тема Автор Размер
Metal (Heavy Metal) Круиз - Железный Рок (Remastered, 2013) - 1987 | 2013 [FLAC, tracks+.cue, lossless] sergej644 428 MB
BBC BBC: Большое железнодорожное путешествие по континенту / Great Continental Railway Journeys [сезон 4 серии 1-6 из 6] (Dave Minchin) [2015 г., Документальный, история, путешествия, HDTVRip 720p] skorpionN 8.85 GB
BBC BBC: Веллингтон - железный герцог без маски / Wellington: The Iron Duke Unmasked (Richard Sanders) [2015 г., Документальный, история, биографический, HDTVRip 720p] skorpionN 1.17 GB
BBC BBC: Кельты: Кровью и железом с Элис Робертс и Нилом Оливером / The Celts: Blood, Iron and Sacrifice with Alice Roberts and Neil Oliver [серии 1-3 из 3] (Jeremy Hall) [2015 г., Документ... skorpionN 4.16 GB
Viasat History Viasat History: BBC: Железные дороги в годы Первой мировой войны / Michael Portillo's Railways of the Great War [серии 1-5 из 5] (Tom Richardson) [2014 г., Документальный, история, HDTVRip 720p] skorpionN 3.72 GB
BBC Viasat History: Кельты: Кровью и железом с Элис Робертс и Нилом Оливером / The Celts: Blood, Iron and Sacrifice with Alice Roberts and Neil Oliver [серии 1-3 из 3] (Jeremy Hal... skorpionN 2.69 GB
Viasat History Viasat History: По железным дорогам бывшей империи / On the Rails of the Double Headed Eagle [серии 1-2 из 2] (Björn Kölz и Gernot Stadler) [2014 г., Документальный, история, путешествия, SATRip] skorpionN 1.45 GB
Документальные HD Большое железнодорожное путешествие по континенту / BBC. Great Continental Railway Journeys (1 сезон) [2012, документальный, история, HDTVRip 720p] TorrentFilm 8.77 GB
Показать сообщения:    

Текущее время: Сегодня 02:15

Часовой пояс: GMT



Вы не можете начинать темы
Вы не можете отвечать на сообщения
Вы не можете редактировать свои сообщения
Вы не можете удалять свои сообщения
Вы не можете голосовать в опросах
Вы не можете прикреплять файлы к сообщениям
Вы не можете скачивать файлы