Железный кулак 2 / The Man with the Iron Fists 2 (Роэль Рейн) [2015, США, боевик, HDRip]

 
Автор Сообщение

AleksSin ®

Пол:

Стаж: 6 лет

Сообщений: 218



Награды: 4 (Подробнее)

Mega Seeder 1 (Количество: 1) Mega Seeder 3 (Количество: 1) Mega Seeder 4 (Количество: 1)
Торрент-статистика

Создавать темы 13-Апр-2015 21:25

[Цитировать]

Железный кулак 2 / The Man with the Iron Fists 2
Страна: США
Жанр: боевик
Год выпуска: 2015
Продолжительность: 01:30:25
Перевод: Любительское (двухголосое)[Студия Пиратского дубляжа]
Cубтитры: нет
Оригинальная аудиодорожка: нет
Режиссер: Роэль Рейн
В ролях: RZA, Кэри-Хироюки Тагава, Сахайак Бунсанакит, Пим Бабиер, Оушен Хоу, Грэйс Хуанг, Хой Линь, Шири Стивен Лавенштайн, Карл Нг, Дастин Нгуен
Описание: Шахтер Ли Кунг и его жена А Ни обнаружили раненного незнакомца Фаддеуса около деревни и дали ему убежище. После лечения он ввязался в конфликт со зловещим мастером Хо, его мерзким кланом Битл и ужасным Лордом Пи.

Качество видео: HDRip (Исх. BDRip 720p)
Формат видео: AVI
Видео кодек: XviD
Аудио кодек: AC3
Видео: 688x384 (1.79:1), 23.976 fps, XviD build 73 ~1910 kbps avg, 0.30 bit/pixel
Аудио: 48 kHz, AC3 Dolby Digital, 3/2 (L,C,R,l,r) + LFE ch, ~384.00 kbps avg

MediaInfo

Общее
Полное имя : S:ФильмыЖелезный кулак 2. 2015. HDRip (AleksSin).avi
Формат : AVI
Формат/Информация : Audio Video Interleave
Размер файла : 1,46 Гбайт
Продолжительность : 1 ч. 30 м.
Общий поток : 2304 Кбит/сек
Программа кодирования : VirtualDubMod 1.5.10.3 | www.virtualdub-fr.org || (build 2550/release)
Библиотека кодирования : VirtualDubMod build 2550/release
Видео
Идентификатор : 0
Формат : MPEG-4 Visual
Профиль формата : Advanced Simple@L5
Параметр BVOP формата : 1
Параметр QPel формата : Нет
Параметр GMC формата : Без точки перехода
Параметр матрицы формата : Выборочная
Идентификатор кодека : XVID
Идентификатор кодека/Подсказка : XviD
Продолжительность : 1 ч. 30 м.
Битрейт : 1910 Кбит/сек
Ширина : 688 пикс.
Высота : 384 пикс.
Соотношение сторон : 16:9
Частота кадров : 23,976 кадр/сек
Цветовое пространство : YUV
Подвыборка цветности : 4:2:0
Битовая глубина : 8 бит
Тип развёртки : Прогрессивная
Метод сжатия : С потерями
Бит/(Пиксели*Кадры) : 0.302
Размер потока : 1,21 Гбайт (83%)
Библиотека кодирования : XviD 73
Аудио
Идентификатор : 1
Формат : AC-3
Формат/Информация : Audio Coding 3
Расширение режима : CM (complete main)
Идентификатор кодека : 2000
Продолжительность : 1 ч. 30 м.
Вид битрейта : Постоянный
Битрейт : 384 Кбит/сек
Каналы : 6 каналов
Расположение каналов : Front: L C R, Side: L R, LFE
Частота : 48,0 КГц
Битовая глубина : 16 бит
Метод сжатия : С потерями
Размер потока : 248 Мбайт (17%)
Выравнивание : Разделение по промежуткам
Продолжительность промежутка : 42 мс. (1,00 видеокадр)
Время предзагрузки промежутка : 500 ms

Скриншоты

[Профиль] [ЛС]

AleksSin ®

Пол:

Стаж: 6 лет

Сообщений: 218



Награды: 4 (Подробнее)

Mega Seeder 1 (Количество: 1) Mega Seeder 2 (Количество: 1) Mega Seeder 3 (Количество: 1)
Торрент-статистика

Создавать темы 13-Апр-2015 21:28 (спустя 3 минуты)

[Цитировать]

В этом релизе другой перевод. [Студия Пиратского дубляжа]
[Профиль] [ЛС]
Кто просматривает тему:

Форум Тема Автор Размер
Metal (Heavy Metal) Круиз - Железный Рок (Remastered, 2013) - 1987 | 2013 [FLAC, tracks+.cue, lossless] sergej644 428 MB
BBC BBC: Большое железнодорожное путешествие по континенту / Great Continental Railway Journeys [сезон 4 серии 1-6 из 6] (Dave Minchin) [2015 г., Документальный, история, путешествия, HDTVRip 720p] skorpionN 8.85 GB
BBC BBC: Веллингтон - железный герцог без маски / Wellington: The Iron Duke Unmasked (Richard Sanders) [2015 г., Документальный, история, биографический, HDTVRip 720p] skorpionN 1.17 GB
BBC BBC: Кельты: Кровью и железом с Элис Робертс и Нилом Оливером / The Celts: Blood, Iron and Sacrifice with Alice Roberts and Neil Oliver [серии 1-3 из 3] (Jeremy Hall) [2015 г., Документ... skorpionN 4.16 GB
Viasat History Viasat History: BBC: Железные дороги в годы Первой мировой войны / Michael Portillo's Railways of the Great War [серии 1-5 из 5] (Tom Richardson) [2014 г., Документальный, история, HDTVRip 720p] skorpionN 3.72 GB
BBC Viasat History: Кельты: Кровью и железом с Элис Робертс и Нилом Оливером / The Celts: Blood, Iron and Sacrifice with Alice Roberts and Neil Oliver [серии 1-3 из 3] (Jeremy Hal... skorpionN 2.69 GB
Viasat History Viasat History: По железным дорогам бывшей империи / On the Rails of the Double Headed Eagle [серии 1-2 из 2] (Björn Kölz и Gernot Stadler) [2014 г., Документальный, история, путешествия, SATRip] skorpionN 1.45 GB
Документальные HD Большое железнодорожное путешествие по континенту / BBC. Great Continental Railway Journeys (1 сезон) [2012, документальный, история, HDTVRip 720p] TorrentFilm 8.77 GB
Показать сообщения:    

Текущее время: Сегодня 20:04

Часовой пояс: GMT



Вы не можете начинать темы
Вы не можете отвечать на сообщения
Вы не можете редактировать свои сообщения
Вы не можете удалять свои сообщения
Вы не можете голосовать в опросах
Вы не можете прикреплять файлы к сообщениям
Вы не можете скачивать файлы