Железный крест / Cross of Iron (1977) BDRip 720p от HQ-ViDEO | P

 
Автор Сообщение

Russian Mafia ®

Пол:

Стаж: 1 год 8 месяцев

Сообщений: 4256



Награды: 10 (Подробнее)

Mega Seeder 1 (Количество: 1) За внесенный вклад в развитие сайта (Количество: 1) Mega Seeder 3 (Количество: 1)
Торрент-статистика

Создавать темы 11-Авг-2016 07:52

[Цитировать]

Информация о фильме
Название: Железный крест
Оригинальное название: Cross of Iron
Год выхода: 1977
Жанр: драма, военный
Режиссер: Сэм Пекинпа /Sam Peckinpah/
В ролях: Джеймс Коберн/James Coburn/, Максимилиан Шелл/Maximilian Schell/, Джеймс Мейсон/James Mason/, Дэвид Уорнер/David Warner/, Клаус Лёвич/Klaus Löwitsch/, Вадим Гловна/Vadim Glowna/, Рогер Фриц/Roger Fritz/, Дитер Шидор/Dieter Schidor/, Буркхард Дрист/Burkhard Driest/, Фред Штилькраут/Fred Stillkrauth/...
О фильме:
1943 год. Немецкая армия с тяжелыми боями отступает на Восточном фронте. На замену убитому командиру батальона прибывает переведенный из Франции капитан Странский. Этот элегантный прусский аристократ еще не бывал в настоящем сражении и мечтает любой ценой получить германский боевой орден — «Железный крест».
Чтобы достичь своей цели, Странскому нужно завоевать уважение командира взвода капрала Штайнера, закаленного в боях ветерана, пользующегося огромным авторитетом среди товарищей по оружию. А «универсальный солдат» Штайнер презирает офицеров, жаждущих славы, но предпочитающих не соваться на передовую…

Страна: Великобритания, Германия (ФРГ)
Продолжительность: 02:12:41
Перевод: Русский профессиональный, многоголосый (Первый канал) + Русский профессиональный, многоголосый (5-ый канал)
Отдельно на Яндекс Диске:
Авторский, одноголосый (С. Визгунов) (отдельно)
Оригинальная, немецкая дорожка (отдельно)
Оригинальная, английская дорожка (отдельно)
Файл
Кодек: MKV, H.264
Качество: BDRip 720p (Source: Blu-ray Disc)
Видео: 8142 kbps; 0.373 bit/pixel; 1280 x 696; 16:9; 24 fps
Звук #1: AC3 Dolby Digital; 192.00 kbps, 2 Ch - MVO 1 kanal
Звук #2: AC3 Dolby Digital; 192.00 kbps, 2 Ch - MVO 5 kanal
Звук #3: AC3 Dolby Digital; 192.00 kbps, 2 Ch - AVO Vizgunov (отдельно / скачать с Яндекс Диск)
Звук #4: AC3 Dolby Digital; 192.00 kbps, 2 Ch - GER (отдельно / скачать с Яндекс Диск)
Звук #5: AC3 Dolby Digital; 192.00 kbps, 2 Ch - ENG (отдельно / скачать с Яндекс Диск)
Субтитры: Русские, Английские.
Субтитры: Русские, Английские (полные, SDH). (отдельно)
Размер: 7.91 GB
SAMPLE / скачать с Яндекс Диск

MediaInfo

Общее
Уникальный идентификатор : 236714423253174568544464736083854367073 (0xB2158A234D4998FFB3429033A5F21961)
Полное имя :Zheleznyi.Krest.1977.DUALRUS.BDRip.720p.h264.AC3.-HQ-ViDEO.mkv
Формат : Matroska
Версия формата : Version 2
Размер файла : 7,91 Гбайт
Продолжительность : 2 ч. 12 м.
Режим общего битрейта : Переменный
Общий поток : 8536 Кбит/сек
Название фильма : Cross of Iron (1977)
Дата кодирования : UTC 2011-11-22 08:49:08
Программа кодирования : mkvmerge v3.3.0 ('Language') built on Mar 24 2010 14:59:24
Библиотека кодирования : libebml v0.8.0 + libmatroska v0.9.0
Видео
Идентификатор : 1
Формат : AVC
Формат/Информация : Advanced Video Codec
Профиль формата : High@L4.1
Параметр CABAC формата : Да
Параметр ReFrames формата : 6 кадров
Идентификатор кодека : V_MPEG4/ISO/AVC
Продолжительность : 2 ч. 12 м.
Вид битрейта : Переменный
Битрейт : 7982 Кбит/сек
Максимальный битрейт : 8142 Кбит/сек
Ширина : 1280 пикселей
Высота : 696 пикселей
Соотношение сторон : 1,85:1
Режим частоты кадров : Постоянный
Частота кадров : 24,000 кадра/сек
Цветовое пространство : YUV
Субдискретизация насыщенности : 4:2:0
Битовая глубина : 8 бит
Тип развёртки : Прогрессивная
Бит/(Пиксели*Кадры) : 0.373
Размер потока : 7,40 Гбайт (94%)
Заголовок : Encoded by GYN
Default : Да
Forced : Нет
Аудио #1
Идентификатор : 2
Формат : AC-3
Формат/Информация : Audio Coding 3
Расширение режима : CM (complete main)
Параметр Endianness формата : Big
Идентификатор кодека : A_AC3
Продолжительность : 2 ч. 12 м.
Вид битрейта : Постоянный
Битрейт : 192 Кбит/сек
Каналы : 2 канала
Расположение каналов : Front: L R
Частота : 48,0 КГц
Метод сжатия : С потерями
Размер потока : 182 Мбайт (2%)
Заголовок : MVO (1 Channel)
Язык : Russian
Default : Да
Forced : Нет
Аудио #2
Идентификатор : 3
Формат : AC-3
Формат/Информация : Audio Coding 3
Расширение режима : CM (complete main)
Параметр Endianness формата : Big
Идентификатор кодека : A_AC3
Продолжительность : 2 ч. 12 м.
Вид битрейта : Постоянный
Битрейт : 192 Кбит/сек
Каналы : 2 канала
Расположение каналов : Front: L R
Частота : 48,0 КГц
Метод сжатия : С потерями
Размер потока : 182 Мбайт (2%)
Заголовок : MVO (5 Channel)
Язык : Russian
Default : Нет
Forced : Нет
Текст #1
Идентификатор : 4
Формат : UTF-8
Идентификатор кодека : S_TEXT/UTF8
Идентификатор кодека/Информация : UTF-8 Plain Text
Язык : Russian
Default : Нет
Forced : Нет
Текст #2
Идентификатор : 5
Формат : UTF-8
Идентификатор кодека : S_TEXT/UTF8
Идентификатор кодека/Информация : UTF-8 Plain Text
Язык : English
Default : Нет
Forced : Нет
Меню
00:00:00.000 : Chapter 00
00:10:41.125 : Chapter 01
00:25:25.541 : Chapter 02
00:37:40.208 : Chapter 03
00:48:27.416 : Chapter 04
00:58:28.000 : Chapter 05
01:06:51.958 : Chapter 06
01:17:24.833 : Chapter 07
01:27:40.916 : Chapter 08
01:36:06.708 : Chapter 09
01:47:49.041 : Chapter 10
02:03:51.291 : Chapter 11

Скриншоты




[Профиль] [ЛС]
Кто просматривает тему:

Форум Тема Автор Размер
Metal (Heavy Metal) Круиз - Железный Рок (Remastered, 2013) - 1987 | 2013 [FLAC, tracks+.cue, lossless] sergej644 428 MB
BBC BBC: Большое железнодорожное путешествие по континенту / Great Continental Railway Journeys [сезон 4 серии 1-6 из 6] (Dave Minchin) [2015 г., Документальный, история, путешествия, HDTVRip 720p] skorpionN 8.85 GB
BBC BBC: Веллингтон - железный герцог без маски / Wellington: The Iron Duke Unmasked (Richard Sanders) [2015 г., Документальный, история, биографический, HDTVRip 720p] skorpionN 1.17 GB
BBC BBC: Кельты: Кровью и железом с Элис Робертс и Нилом Оливером / The Celts: Blood, Iron and Sacrifice with Alice Roberts and Neil Oliver [серии 1-3 из 3] (Jeremy Hall) [2015 г., Документ... skorpionN 4.16 GB
Viasat History Viasat History: BBC: Железные дороги в годы Первой мировой войны / Michael Portillo's Railways of the Great War [серии 1-5 из 5] (Tom Richardson) [2014 г., Документальный, история, HDTVRip 720p] skorpionN 3.72 GB
BBC Viasat History: Кельты: Кровью и железом с Элис Робертс и Нилом Оливером / The Celts: Blood, Iron and Sacrifice with Alice Roberts and Neil Oliver [серии 1-3 из 3] (Jeremy Hal... skorpionN 2.69 GB
Viasat History Viasat History: По железным дорогам бывшей империи / On the Rails of the Double Headed Eagle [серии 1-2 из 2] (Björn Kölz и Gernot Stadler) [2014 г., Документальный, история, путешествия, SATRip] skorpionN 1.45 GB
Документальные HD Большое железнодорожное путешествие по континенту / BBC. Great Continental Railway Journeys (1 сезон) [2012, документальный, история, HDTVRip 720p] TorrentFilm 8.77 GB
Показать сообщения:    

Текущее время: Сегодня 02:15

Часовой пояс: GMT



Вы не можете начинать темы
Вы не можете отвечать на сообщения
Вы не можете редактировать свои сообщения
Вы не можете удалять свои сообщения
Вы не можете голосовать в опросах
Вы не можете прикреплять файлы к сообщениям
Вы не можете скачивать файлы