Железная схватка / Robot Overlords (Джон Райт) [2014, фантастика, боевик, приключения, WEB-DLRip]

 
Автор Сообщение

AleksSin ®

Пол:

Стаж: 5 лет 11 месяцев

Сообщений: 218



Награды: 4 (Подробнее)

Mega Seeder 4 (Количество: 1) Mega Seeder 2 (Количество: 1) Mega Seeder 1 (Количество: 1)
Торрент-статистика

Создавать темы 12-Апр-2015 18:46

[Цитировать]

Железная схватка / Robot Overlords«Поклонись своим новым повелителям» Страна: Великобритания
Жанр: фантастика, боевик, приключения
Год выпуска: 2014
Продолжительность: 01:29:49
Перевод: Любительское (двухголосое) [Студия Пиратского дубляжа]
Cубтитры: нет
Оригинальная аудиодорожка: нет
Режиссер: Джон Райт
В ролях: Джиллиан Андерсон, Бен Кингсли, Каллэн МакОлифф, Тамер Хассан, Джеральдин Джеймс, Стивен Макинтош, Элла Хант, Мило Паркер, Рой Хадд, Крэйг Гарнер
Описание: Роботы из далекой Галактики захватили Землю. Лондон разрушен, люди живут в постоянном страхе. Выжившим запрещено покидать свои дома. Каждому человеку вмонтирован чип, который в случае неповиновения может превратить его в горстку пепла. И лишь группа молодых друзей решается бросить вызов инопланетным захватчикам и уничтожить необъятный корабль, заслоняющий горизонт вот уже долгие годы.

Качество видео: WEB-DLRip (Исх. WEB-DL 720p)
Формат видео: AVI
Видео кодек: XviD
Аудио кодек: АС3
Видео: 688x384 (1.79:1), 23.976 fps, XviD build 73 ~1922 kbps avg, 0.30 bit/pixel
Аудио: 48 kHz, AC3 Dolby Digital, 2/0 (L,R) ch, ~384.00 kbps avg

MediaInfo

Общее
Полное имя : S:\Фильмы\Железная схватка. 2014. WEB-DLRip (AleksSin).avi
Формат : AVI
Формат/Информация : Audio Video Interleave
Размер файла : 1,45 Гбайт
Продолжительность : 1 ч. 29 м.
Общий поток : 2315 Кбит/сек
Программа кодирования : VirtualDubMod 1.5.10.3 | www.virtualdub-fr.org || (build 2550/release)
Библиотека кодирования : VirtualDubMod build 2550/release
Видео
Идентификатор : 0
Формат : MPEG-4 Visual
Профиль формата : Advanced Simple@L5
Параметр BVOP формата : 1
Параметр QPel формата : Нет
Параметр GMC формата : Без точки перехода
Параметр матрицы формата : Выборочная
Идентификатор кодека : XVID
Идентификатор кодека/Подсказка : XviD
Продолжительность : 1 ч. 29 м.
Битрейт : 1922 Кбит/сек
Ширина : 688 пикс.
Высота : 384 пикс.
Соотношение сторон : 16:9
Частота кадров : 23,976 кадр/сек
Цветовое пространство : YUV
Подвыборка цветности : 4:2:0
Битовая глубина : 8 бит
Тип развёртки : Прогрессивная
Метод сжатия : С потерями
Бит/(Пиксели*Кадры) : 0.303
Размер потока : 1,21 Гбайт (83%)
Библиотека кодирования : XviD 73
Аудио
Идентификатор : 1
Формат : AC-3
Формат/Информация : Audio Coding 3
Расширение режима : CM (complete main)
Идентификатор кодека : 2000
Продолжительность : 1 ч. 29 м.
Вид битрейта : Постоянный
Битрейт : 384 Кбит/сек
Каналы : 2 канала
Расположение каналов : Front: L R
Частота : 48,0 КГц
Битовая глубина : 16 бит
Метод сжатия : С потерями
Размер потока : 247 Мбайт (17%)
Выравнивание : Разделение по промежуткам
Продолжительность промежутка : 42 мс. (1,00 видеокадр)
Время предзагрузки промежутка : 500 ms

Скриншоты

[Профиль] [ЛС]

AleksSin ®

Пол:

Стаж: 5 лет 11 месяцев

Сообщений: 218



Награды: 4 (Подробнее)

Mega Seeder 3 (Количество: 1) Mega Seeder 2 (Количество: 1) Mega Seeder 4 (Количество: 1)
Торрент-статистика

Создавать темы 13-Апр-2015 06:11 (спустя 11 часов)

[Цитировать]

Отличие в релизах!
В этом релизе перевод. [Студия Пиратского дубляжа]
В релизе http://torrentfilm.net/viewtopic.php?t=51916 [Sunny-Films]
[Профиль] [ЛС]
Кто просматривает тему:

Форум Тема Автор Размер
Metal (Heavy Metal) Круиз - Железный Рок (Remastered, 2013) - 1987 | 2013 [FLAC, tracks+.cue, lossless] sergej644 428 MB
BBC BBC: Большое железнодорожное путешествие по континенту / Great Continental Railway Journeys [сезон 4 серии 1-6 из 6] (Dave Minchin) [2015 г., Документальный, история, путешествия, HDTVRip 720p] skorpionN 8.85 GB
BBC BBC: Веллингтон - железный герцог без маски / Wellington: The Iron Duke Unmasked (Richard Sanders) [2015 г., Документальный, история, биографический, HDTVRip 720p] skorpionN 1.17 GB
BBC BBC: Кельты: Кровью и железом с Элис Робертс и Нилом Оливером / The Celts: Blood, Iron and Sacrifice with Alice Roberts and Neil Oliver [серии 1-3 из 3] (Jeremy Hall) [2015 г., Документ... skorpionN 4.16 GB
Viasat History Viasat History: BBC: Железные дороги в годы Первой мировой войны / Michael Portillo's Railways of the Great War [серии 1-5 из 5] (Tom Richardson) [2014 г., Документальный, история, HDTVRip 720p] skorpionN 3.72 GB
BBC Viasat History: Кельты: Кровью и железом с Элис Робертс и Нилом Оливером / The Celts: Blood, Iron and Sacrifice with Alice Roberts and Neil Oliver [серии 1-3 из 3] (Jeremy Hal... skorpionN 2.69 GB
Viasat History Viasat History: По железным дорогам бывшей империи / On the Rails of the Double Headed Eagle [серии 1-2 из 2] (Björn Kölz и Gernot Stadler) [2014 г., Документальный, история, путешествия, SATRip] skorpionN 1.45 GB
Документальные HD Большое железнодорожное путешествие по континенту / BBC. Great Continental Railway Journeys (1 сезон) [2012, документальный, история, HDTVRip 720p] TorrentFilm 8.77 GB
Показать сообщения:    

Текущее время: Сегодня 00:40

Часовой пояс: GMT



Вы не можете начинать темы
Вы не можете отвечать на сообщения
Вы не можете редактировать свои сообщения
Вы не можете удалять свои сообщения
Вы не можете голосовать в опросах
Вы не можете прикреплять файлы к сообщениям
Вы не можете скачивать файлы