Жатва / The Reaping (Стивен Хопкинс / Stephen Hopkins) [2007, США, мистика, DVB] [Fullscreen] Dub

 
Автор Сообщение

TorrentFilm ®

Пол:

Стаж: 2 года

Сообщений: 7741



Награды: Нет

Торрент-статистика

Создавать темы 06-Апр-2016 00:09

[Цитировать]

Жатва
The Reaping
Fullscreen Страна: США
Жанр: мистика
Год выпуска: 2007
Продолжительность: 01:30:00-Перевод: Профессиональный (дублированный)
Cубтитры: нет
Оригинальная аудиодорожка: нет-Режиссер: Стивен Хопкинс / Stephen Hopkins
В ролях: Хилари Суонк, Идрис Эльба, Стивен Ри, Дэвид Моррисси, Анна-София Робб, Уильям Рэгсдэйл, Джон МакКоннелл, Дэвид Дженсен, Ивонн Ландри, Андреа Франкл, Лара Грайс, Афемо Омилами-Описание: Несколько лет назад Кэтрин Уинтер приняла духовный сан, но после трагической смерти мужа и дочери она превратилась в безбожницу, специализирующуюся на разоблачении религиозных чудес по всему свету. Очередным ее делом становится странное проишествие в городке Хэвен, там река стала красной, как кровь. Скептически настроенная Кэтрин отбрасывает догадки местных жителей, полагающих, что это первая из десяти египетских казней, описанных в Ветхом Завете, но когда начнется дождь из лягушек, а скот сляжет от неизвестной болезни, ей придется задуматься. Похоже, в городе действует некая тайная секта, спровоцировавшая начало страшных событий-
Доп. информация: Fullscreen
DVB имеет иное наполнение кадра, чем BD и DVD (соотношение сторон 4:3)
Финальные титры ускорены и совмещены с анонсом фильма
-Сэмпл: минута45сек-Качество видео: DVB
Формат видео: MPEG-PS
Видео: MPEG Video, 720x576, 4:3, 25,000 кадров/сек, 3091 Кбит/сек
Аудио: MP2, 48,0 КГц, 192 Кбит/сек, 2 канала

Сравнение с BD / DVD

6 скринов

MediaInfo

Общее
Полное имя : Жатва-2016.03.24.mpg
Формат : MPEG-PS
Размер файла : 2,11 Гбайт
Продолжительность : 1 ч. 30 м.
Режим общего битрейта : Переменный
Общий поток : 3349 Кбит/сек
Видео
Идентификатор : 224 (0xE0)
Формат : MPEG Video
Версия формата : Version 2
Профиль формата : Main@Main
Параметр BVOP формата : Да
Параметр матрицы формата : Выборочная
Параметр GOP формата : Variable
Структура изображения : Frame
Продолжительность : 1 ч. 30 м.
Вид битрейта : Переменный
Битрейт : 3091 Кбит/сек
Максимальный битрейт : 15,0 Мбит/сек
Ширина : 720 пикселей
Высота : 576 пикселей
Соотношение сторон : 4:3
Частота кадров : 25,000 кадров/сек
Стандарт вещания : PAL
Цветовое пространство : YUV
Субдискретизация насыщенности : 4:2:0
Битовая глубина : 8 бит
Тип развёртки : Чересстрочная
Порядок развёртки : Верхнее поле первое
Метод сжатия : С потерями
Бит/(Пиксели*Кадры) : 0.298
Временной код первого кадра : 00:00:00:00
Оригинал временного кода : Group of pictures header
GOP, открыто/закрыто : Открыто
Размер потока : 1,94 Гбайт (92%)
Аудио
Идентификатор : 192 (0xC0)
Формат : MPEG Audio
Версия формата : Version 1
Профиль формата : Layer 2
Продолжительность : 1 ч. 30 м.
Вид битрейта : Постоянный
Битрейт : 192 Кбит/сек
Каналы : 2 канала
Частота : 48,0 КГц
Метод сжатия : С потерями
Задержка видео : 4 мс.
Размер потока : 124 Мбайт (6%)

Скриншот c названием фильма

[Профиль] [ЛС]
Кто просматривает тему:

Форум Тема Автор Размер
Боевики, детективы, триллеры Тесс Герритсен - Жатва (2015) FB2 достали все 2 MB
Показать сообщения:    

Текущее время: Сегодня 08:49

Часовой пояс: GMT



Вы не можете начинать темы
Вы не можете отвечать на сообщения
Вы не можете редактировать свои сообщения
Вы не можете удалять свои сообщения
Вы не можете голосовать в опросах
Вы не можете прикреплять файлы к сообщениям
Вы не можете скачивать файлы