(Pop) Жанна Фриске - Жанна (+ новый трек «Мама Мария») - 2006 [FLAC, image+.cue, lossless]

 
Автор Сообщение

sergej644 ®

Пол:

Стаж: 4 года 11 месяцев

Сообщений: 6046

Откуда: Soviet Union



Награды: Нет

Торрент-статистика

Создавать темы 17-Июн-2015 17:06

[Цитировать]

-Жанна Фриске / Жанна (+ новый трек «Мама Мария»)-- Год издания: 2006
Страна: Russia
Жанр: Pop
Продолжительность: 00:54:19-Лейбл издания: CD Land, Russkoe Radio
Страна-выпуска диска: Russia
Номер по каталогу: CDLREC 722006 CD
Формат: FLAC
Битрейт аудио: lossless
Тип рипа: image+.cue
Наличие сканов в содержимом раздачи: да
--

Трэклист

01.Мама Мария (03:26)
02.Лечу в темноту (03:51)
03.Где-то лето (03:48)
04.Ты не закрывай свое сердце (03:56)
05.Ла-ла-ла (03:54)
06.Загадаю я (03:48)
07.На губах кусочки льда (04:02)
08.Аквамарин (03:59)
09.Ты - мой снег, ты - мой дождь (03:55)
10.Ты не для меня (03:58)
11.Ты не закрывай свое сердце (remix 3) (04:55)
12.Ты не закрывай свое сердце (remix 2) (04:10)
13.Ла-ла-ла (remix dj Groove) (03:02)
14.Ла-ла-ла (remix) (03:40)
--

Лог создания рипа

Exact Audio Copy V0.99 prebeta 4 from 23. January 2008
Отчёт EAC об извлечении, выполненном 17. февраля 2009, 19:48
Жанна Фриске / Жанна Фриске
Дисковод: ASUS    DRW-1814BL   Adapter: 1  ID: 0
Режим чтения                 : Достоверность
Использование точного потока : Да
Отключение кэша аудио        : Да
Использование указателей C2  : Нет
Коррекция смещения при чтении                     : 6
Способность читать области Lead-in и Lead-out     : Нет
Заполнение пропущенных сэмплов тишиной            : Да
Удаление блоков с тишиной в начале и конце        : Нет
При вычислениях CRC использовались нулевые сэмплы : Да
Интерфейс                                         : Встроенный Win32-интерфейс для Win NT/2000
Выходной формат : Внутренние WAV-операции
Формат сэмплов  : 44.100 Гц; 16 бит; стерео
TOC извлечённого CD
     Трек |   Старт  | Длительность | Начальный сектор | Конечный сектор
    ---------------------------------------------------------------------
       1  |  0:00.00 |    3:25.28   |           0      |      15402
       2  |  3:25.28 |    3:50.55   |       15403      |      32707
       3  |  7:16.08 |    3:47.70   |       32708      |      49802
       4  | 11:04.03 |    3:55.52   |       49803      |      67479
       5  | 14:59.55 |    3:53.71   |       67480      |      85025
       6  | 18:53.51 |    3:47.50   |       85026      |     102100
       7  | 22:41.26 |    4:01.59   |      102101      |     120234
       8  | 26:43.10 |    3:58.20   |      120235      |     138104
       9  | 30:41.30 |    3:54.30   |      138105      |     155684
      10  | 34:35.60 |    3:57.61   |      155685      |     173520
      11  | 38:33.46 |    4:54.06   |      173521      |     195576
      12  | 43:27.52 |    4:09.31   |      195577      |     214282
      13  | 47:37.08 |    3:01.69   |      214283      |     227926
      14  | 50:39.02 |    3:39.08   |      227927      |     244359
      15  | 56:50.10 |   22:03.60   |      255760      |     355044
Характеристики диапазона извлечения и сообщения об ошибках
Выбранный диапазон
     Имя файла F:\Жанна Фриске\2006.Жанна (+ новый трек «Мама Мария»)\Жанна Фриске - Жанна Фриске.wav
     Пиковый уровень 98.8 %
     Качество диапазона 100.0 %
     CRC теста 4F5B1AE0
     CRC копии 4F5B1AE0
     Копирование... OK
Ошибок не произошло
AccurateRip: сводка
Трек  1  нет в базе данных
Трек  2  нет в базе данных
Трек  3  нет в базе данных
Трек  4  нет в базе данных
Трек  5  нет в базе данных
Трек  6  нет в базе данных
Трек  7  нет в базе данных
Трек  8  нет в базе данных
Трек  9  нет в базе данных
Трек 10  нет в базе данных
Трек 11  нет в базе данных
Трек 12  нет в базе данных
Трек 13  нет в базе данных
Трек 14  нет в базе данных
Ни одного трека нет в базе AccurateRip
Конец отчёта

Индексная карта (non-compilant .cue)

REM GENRE pop
REM DATE 2006
REM DISCID BF127D0F
REM COMMENT "ExactAudioCopy v0.99pb4"
PERFORMER "Жанна Фриске"
TITLE "Жанна Фриске"
FILE "Жанна Фриске - Жанна Фриске.flac" WAVE
  TRACK 01 AUDIO
    TITLE "Мама Мария"
    PERFORMER "Жанна Фриске"
    FLAGS DCP
    INDEX 01 00:00:00
  TRACK 02 AUDIO
    TITLE "Лечу в темноту"
    PERFORMER "Жанна Фриске"
    FLAGS DCP
    INDEX 01 03:25:28
  TRACK 03 AUDIO
    TITLE "Где-то лето"
    PERFORMER "Жанна Фриске"
    FLAGS DCP
    INDEX 01 07:16:08
  TRACK 04 AUDIO
    TITLE "Ты не закрывай свое сердце"
    PERFORMER "Жанна Фриске"
    FLAGS DCP
    INDEX 01 11:04:03
  TRACK 05 AUDIO
    TITLE "Ла-ла-ла"
    PERFORMER "Жанна Фриске"
    FLAGS DCP
    INDEX 01 14:59:55
  TRACK 06 AUDIO
    TITLE "Загадаю я"
    PERFORMER "Жанна Фриске"
    FLAGS DCP
    INDEX 01 18:53:51
  TRACK 07 AUDIO
    TITLE "На губах кусочки льда"
    PERFORMER "Жанна Фриске"
    FLAGS DCP
    INDEX 01 22:41:26
  TRACK 08 AUDIO
    TITLE "Аквамарин"
    PERFORMER "Жанна Фриске"
    FLAGS DCP
    INDEX 01 26:43:10
  TRACK 09 AUDIO
    TITLE "Ты - мой снег, ты - мой дождь"
    PERFORMER "Жанна Фриске"
    FLAGS DCP
    INDEX 01 30:41:30
  TRACK 10 AUDIO
    TITLE "Ты не для меня"
    PERFORMER "Жанна Фриске"
    FLAGS DCP
    INDEX 01 34:35:60
  TRACK 11 AUDIO
    TITLE "Ты не закрывай свое сердце (remix 3)"
    PERFORMER "Жанна Фриске"
    FLAGS DCP
    INDEX 01 38:33:46
  TRACK 12 AUDIO
    TITLE "Ты не закрывай свое сердце (remix 2)"
    PERFORMER "Жанна Фриске"
    FLAGS DCP
    INDEX 01 43:27:52
  TRACK 13 AUDIO
    TITLE "Ла-ла-ла (remix dj Groove)"
    PERFORMER "Жанна Фриске"
    FLAGS DCP
    INDEX 01 47:37:08
  TRACK 14 AUDIO
    TITLE "Ла-ла-ла (remix)"
    PERFORMER "Жанна Фриске"
    FLAGS DCP
    INDEX 01 50:39:02

Лог Audiochecker

AUDIOCHECKER v2.0 beta (build 457) - by Dester - opdester@freemail.hu
~~~~~~~~~~~~~~~~~~~~~~~~~~~~~~~~~~
Started at: среда, 17. 06. 2015. - 18:54.25
1 file found
1 -===- N:\папка временных  файлов(ноут,стационар)\Жанна Фриске - Жанна (+ новый трек «Мама Мария») 2006 FLAC\Жанна Фриске - Жанна Фриске.flac
  Extracted successfully
  Conclusion: this track is CDDA with probability 100%
  Tempfile successfully deleted.
Finished at: среда, 17. 06. 2015. - 18:57.08 (operation time: 0:02.43)

Скриншот спектра частот

--Не забываем говорить
[Профиль] [ЛС]
Кто просматривает тему:

Форум Тема Автор Размер
Pop (Pop) Жанна Фриске - Светлая память тебе! (2015) MP3 BOSS 844 MB
Показать сообщения:    

Текущее время: Сегодня 02:31

Часовой пояс: GMT



Вы не можете начинать темы
Вы не можете отвечать на сообщения
Вы не можете редактировать свои сообщения
Вы не можете удалять свои сообщения
Вы не можете голосовать в опросах
Вы не можете прикреплять файлы к сообщениям
Вы не можете скачивать файлы