Жанна Пуассон, маркиза де Помпадур / Jeanne Poisson, Marquise de Pompadour (Робин Дэвис / Robin Davis) [2006, Франция, история, DVDRip] DVO (RedDiamond Studio) + Sub Rus (Lisok) + Original Fre

 
Автор Сообщение

TorrentFilm ®

Пол:

Стаж: 2 года

Сообщений: 7741



Награды: Нет

Торрент-статистика

Создавать темы 17-Фев-2016 00:09

[Цитировать]

Жанна Пуассон, маркиза де Помпадур / Jeanne Poisson, Marquise de Pompadour
Страна: Франция
Студия: Cinétévé, France 2 (FR2), TV5 Monde, Radio Télévision Belge Francophone (RTBF), Télévision Suisse-Romande (TSR), Alex Productions, Région Ile-de-France.
Жанр: история
Год выпуска: 2006
Продолжительность: 01:36:43 + 01:36:26
Перевод: Любительский (двухголосый закадровый) - "RedDiamond Studio" (Текст читали: Матвей Кенс и Соломея Журавская)
Cубтитры: русские Lisok (Lisochek)]
Оригинальная аудиодорожка: французский
Режиссер: Робин Дэвис / Robin Davis
В ролях: Элен де Фужроль, Венсан Перес, Шарлотт де Тюркейм, Розмари Ла Волле, Дамьен Жуйро, Элизабет Маргони, Дженнифер Декер, Леа Вяземски, Хлоя Стефани, Патрик Одекюр ...
Описание: Охлаждение августейшей особы во все времена означало безвозвратный уход бывшей фаворитки в тень и дальнейшее забытье, если не опалу. Маркиза де Помпадур была только 5 лет любовницей короля, а еще 15 — другом и ближайшим советником по многим вопросам, порой и государственной важности.
Доп. информация: Рип сделан из этого 2xDVD5.-- --Jeanne Poisson, Marquise de Pompadour (2006)_DVDRip_Sample_.avi--Качество видео: DVDRip
Формат видео: AVI
Видео: 672x400 (1.68:1), 25 fps, XviD build 50 ~1514 kbps avg, 0.23 bit/pixel
Аудио 1: 48 kHz, AC3 Dolby Digital, 2/0 (L,R) ch, ~192 kbps, Русский
Аудио 2: 48 kHz, AC3 Dolby Digital, 3/2 (L,C,R,l,r) + LFE ch, ~448 kbps, французский
Формат субтитров: softsub (SRT)

AviInfo

File: Jeanne Poisson, Marquise de Pompadour (2006)_DVDRip_Part - 1_.avi
Title: Jeanne Poisson, Marquise de Pompadour (2006)
Author: Robin Davis
Copyleft: Ripped_by_rjhlb777
Genre: History
Category: Movie
Comment: DVO ("RedDiamond Studio") + Original Fre
FileSize: 1501.47 Mb ( 1 574 410 240 bytes )
Play length: 01:36:43.399 (145085 frames)
Subtitles: RUS_(Lisok)_ (SubRip format)
Video: 672x400 (1.68:1), 25 fps, XviD build 50 ~1514 kbps avg, 0.23 bit/pixel
Audio #1: 48 kHz, AC3 Dolby Digital, 2/0 (L,R) ch, ~192 kbps
Audio #2: 48 kHz, AC3 Dolby Digital, 3/2 (L,C,R,l,r) + LFE ch, ~448 kbps
=========================================================
=========================================================
File: Jeanne Poisson, Marquise de Pompadour (2006)_DVDRip_Part - 2_.avi
Title: Jeanne Poisson, Marquise de Pompadour (2006)
Author: Robin Davis
Copyleft: Ripped_by_rjhlb777
Genre: History
Category: Movie
Comment: DVO ("RedDiamond Studio") + Original Fre
FileSize: 1501.19 Mb ( 1 574 109 184 bytes )
Play length: 01:36:26.399 (144660 frames)
Subtitles: RUS_(Lisok)_ (SubRip format)
Video: 672x400 (1.68:1), 25 fps, XviD build 50 ~1520 kbps avg, 0.23 bit/pixel
Audio #1: 48 kHz, AC3 Dolby Digital, 2/0 (L,R) ch, ~192 kbps
Audio #2: 48 kHz, AC3 Dolby Digital, 3/2 (L,C,R,l,r) + LFE ch, ~448 kbps

MediaInfo

General
Complete name : C:\Temp\_RELEASES_\Jeanne Poisson, Marquise de Pompadour (2006)_DVDRip_\Jeanne Poisson, Marquise de Pompadour (2006)_DVDRip_Part - 1_.avi
Format : AVI
Format/Info : Audio Video Interleave
File size : 1.47 GiB
Duration : 1h 36mn
Overall bit rate : 2 170 Kbps
Movie name : Jeanne Poisson, Marquise de Pompadour (2006)
Director : Robin Davis
Genre : History
Writing application : VirtualDubMod 1.5.10.3 | www.virtualdub-fr.org || (build 2550/release)
Original source form/Name : Movie
Copyright : Ripped_by_rjhlb777
Comment : DVO ("RedDiamond Studio") + Original Fre
Video
ID : 0
Format : MPEG-4 Visual
Format profile : Advanced Simple@L5
Format settings, BVOP : 1
Format settings, QPel : No
Format settings, GMC : No warppoints
Format settings, Matrix : Default (MPEG)
Codec ID : XVID
Codec ID/Hint : XviD
Duration : 1h 36mn
Bit rate : 1 516 Kbps
Width : 672 pixels
Height : 400 pixels
Display aspect ratio : 5:3
Frame rate : 25.000 fps
Color space : YUV
Chroma subsampling : 4:2:0
Bit depth : 8 bits
Scan type : Progressive
Compression mode : Lossy
Bits/(Pixel*Frame) : 0.226
Stream size : 1.02 GiB (70%)
Writing library : XviD 1.2.1 (UTC 2008-12-04)
Audio #1
ID : 1
Format : AC-3
Format/Info : Audio Coding 3
Mode extension : CM (complete main)
Format settings, Endianness : Big
Codec ID : 2000
Duration : 1h 36mn
Bit rate mode : Constant
Bit rate : 192 Kbps
Channel(s) : 2 channels
Channel positions : Front: L R
Sampling rate : 48.0 KHz
Compression mode : Lossy
Stream size : 133 MiB (9%)
Alignment : Split accross interleaves
Interleave, duration : 40 ms (1.00 video frame)
Interleave, preload duratio : 500 ms
Audio #2
ID : 2
Format : AC-3
Format/Info : Audio Coding 3
Mode extension : CM (complete main)
Format settings, Endianness : Big
Codec ID : 2000
Duration : 1h 36mn
Bit rate mode : Constant
Bit rate : 448 Kbps
Channel(s) : 6 channels
Channel positions : Front: L C R, Side: L R, LFE
Sampling rate : 48.0 KHz
Compression mode : Lossy
Stream size : 310 MiB (21%)
Alignment : Split accross interleaves
Interleave, duration : 40 ms (1.00 video frame)
Interleave, preload duratio : 500 ms
===========================================================================
===========================================================================
General
Complete name : C:\Temp\_RELEASES_\Jeanne Poisson, Marquise de Pompadour (2006)_DVDRip_\Jeanne Poisson, Marquise de Pompadour (2006)_DVDRip_Part - 2_.avi
Format : AVI
Format/Info : Audio Video Interleave
File size : 1.47 GiB
Duration : 1h 36mn
Overall bit rate : 2 176 Kbps
Movie name : Jeanne Poisson, Marquise de Pompadour (2006)
Director : Robin Davis
Genre : History
Writing application : VirtualDubMod 1.5.10.3 | www.virtualdub-fr.org || (build 2550/release)
Original source form/Name : Movie
Copyright : Ripped_by_rjhlb777
Comment : DVO ("RedDiamond Studio") + Original Fre
Video
ID : 0
Format : MPEG-4 Visual
Format profile : Advanced Simple@L5
Format settings, BVOP : 1
Format settings, QPel : No
Format settings, GMC : No warppoints
Format settings, Matrix : Default (MPEG)
Codec ID : XVID
Codec ID/Hint : XviD
Duration : 1h 36mn
Bit rate : 1 522 Kbps
Width : 672 pixels
Height : 400 pixels
Display aspect ratio : 5:3
Frame rate : 25.000 fps
Color space : YUV
Chroma subsampling : 4:2:0
Bit depth : 8 bits
Scan type : Progressive
Compression mode : Lossy
Bits/(Pixel*Frame) : 0.226
Stream size : 1.03 GiB (70%)
Writing library : XviD 1.2.1 (UTC 2008-12-04)
Audio #1
ID : 1
Format : AC-3
Format/Info : Audio Coding 3
Mode extension : CM (complete main)
Format settings, Endianness : Big
Codec ID : 2000
Duration : 1h 36mn
Bit rate mode : Constant
Bit rate : 192 Kbps
Channel(s) : 2 channels
Channel positions : Front: L R
Sampling rate : 48.0 KHz
Compression mode : Lossy
Stream size : 132 MiB (9%)
Alignment : Split accross interleaves
Interleave, duration : 40 ms (1.00 video frame)
Interleave, preload duratio : 500 ms
Audio #2
ID : 2
Format : AC-3
Format/Info : Audio Coding 3
Mode extension : CM (complete main)
Format settings, Endianness : Big
Codec ID : 2000
Duration : 1h 36mn
Bit rate mode : Constant
Bit rate : 448 Kbps
Channel(s) : 6 channels
Channel positions : Front: L C R, Side: L R, LFE
Sampling rate : 48.0 KHz
Compression mode : Lossy
Stream size : 309 MiB (21%)
Alignment : Split accross interleaves
Interleave, duration : 40 ms (1.00 video frame)
Interleave, preload duratio : 500 ms
[Профиль] [ЛС]
Кто просматривает тему:

Форум Тема Автор Размер
Музыка других жанров (Music from other genres) (Pop) Жанна Фриске - Жанна (+ новый трек «Мама Мария») - 2006 [FLAC, image+.cue, lossless] sergej644 383 MB
Pop (Pop) Жанна Фриске - Светлая память тебе! (2015) MP3 BOSS 844 MB
BBC BBC: Жанна д’Арк – святая воительница / Joan of Arc: God's Warrior (Luct Swindler) [2015 г., Документальный, постановочный, история, HDTVRip 720p] skorpionN 1.59 GB
Документальные HD Жанна Прохоренко. "Оставляю Вам Свою Любовь..." (Ирина Крячко) [2015, Документальный, HDTV 720p] TorrentFilm 1.46 GB
Фильмы 2011 года Жанна Пуассон, маркиза де Помпадур / Jeanne Poisson, Marquise de Pompadour / Сезон: 1 / Серии: 1-2 из 2 (Робин Дэвис) [2006, История, биография, драма, мелодрама, SATRip] DVO (RedDiamond Studio) +... TorrentFilm 1.54 GB
Отечественные cериалы Реальные пацаны (Реальная семья)(7 сезон 1-20 серия из 20) (Жанна Кадникова) [2015 г., Комедия, SATRip] достали все 5.97 GB
Отечественные cериалы Реальные пацаны [S07] (Жанна Кадникова) [2015, Комедийный телесериал] WEB-DLRip BOSS 6.15 GB
Показать сообщения:    

Текущее время: Сегодня 11:55

Часовой пояс: GMT



Вы не можете начинать темы
Вы не можете отвечать на сообщения
Вы не можете редактировать свои сообщения
Вы не можете удалять свои сообщения
Вы не можете голосовать в опросах
Вы не можете прикреплять файлы к сообщениям
Вы не можете скачивать файлы