Жанна Пуассон, маркиза де Помпадур / Jeanne Poisson, Marquise de Pompadour / Сезон: 1 / Серии: 1-2 из 2 (Робин Дэвис) [2006, История, биография, драма, мелодрама, SATRip] DVO (RedDiamond Studio) + rus sub (Lisok) + Original

 
Автор Сообщение

TorrentFilm ®

Пол:

Стаж: 2 года

Сообщений: 7741



Награды: Нет

Торрент-статистика

Создавать темы 17-Фев-2016 00:04

[Цитировать]

Жанна Пуассон, маркиза де Помпадур / Jeanne Poisson, Marquise de Pompadour
Год выпуска: 2006
Страна: Франция
Жанр: История, биография, драма, мелодрама
Продолжительность: 01:36:40
Перевод: Любительский (двухголосый закадровый) RedDiamond Studio
Режиссёр: Робин Дэвис
В ролях: Элен де Фужроль, Венсан Перес и др.
Описание: Охлаждение августейшей особы во все времена означало безвозвратный уход бывшей фаворитки в тень и дальнейшее забытье, если не опалу. Маркиза де Помпадур была только 5 лет любовницей короля, а еще 15 — другом и ближайшим советником по многим вопросам, порой и государственной важности.
Ссылка на предыдущие и альтернативные раздачи: http://torrentfilm.net/forum/tracker.php?f=189&nm...20de%20Pompadour
Сэмпл: https://yadi.sk/i/FuqFYtG2hgY26
Качество: SATRip
Формат: AVI
Видео: XviD, 640х426 (3:2), 25 Fps,
Аудио: mp3, 48 kHz, 128 Kbps, stereo (Русский)
Аудио 2: mp3, 48 kHz, 128 Kbps, stereo (французский)
Субтитры: Русские (софтсаб)

Релиз

Озвучено и переведено по заказу Ирины Заходякиной.
Текст читали: Матвей Кенс и Саломея Журавская
Перевод с французского и субтитры: Lisok

MediaInfo

General
Complete name : G:\Мадам де Помпадур 1.avi
Format : AVI
Format/Info : Audio Video Interleave
File size : 787 MiB
Duration : 1h 36mn
Overall bit rate : 1 138 Kbps
Writing application : VirtualDubMod 1.5.10.2 (build 2542/release)
Writing library : VirtualDubMod build 2542/release
Video
ID : 0
Format : MPEG-4 Visual
Format profile : Advanced Simple@L5
Format settings, BVOP : 2
Format settings, QPel : No
Format settings, GMC : No warppoints
Format settings, Matrix : Default (H.263)
Codec ID : XVID
Codec ID/Hint : XviD
Duration : 1h 36mn
Bit rate : 867 Kbps
Width : 640 pixels
Height : 426 pixels
Display aspect ratio : 3:2
Frame rate : 25.000 fps
Color space : YUV
Chroma subsampling : 4:2:0
Bit depth : 8 bits
Scan type : Progressive
Compression mode : Lossy
Bits/(Pixel*Frame) : 0.127
Stream size : 600 MiB (76%)
Writing library : XviD 1.1.0 (UTC 2005-11-22)
Audio #1
ID : 1
Format : MPEG Audio
Format version : Version 1
Format profile : Layer 3
Mode : Joint stereo
Codec ID : 55
Codec ID/Hint : MP3
Duration : 1h 36mn
Bit rate mode : Constant
Bit rate : 128 Kbps
Channel(s) : 2 channels
Sampling rate : 48.0 KHz
Compression mode : Lossy
Stream size : 88.5 MiB (11%)
Alignment : Aligned on interleaves
Interleave, duration : 40 ms (1.00 video frame)
Interleave, preload duration : 504 ms
Writing library : LAME3.98r
Encoding settings : -m j -V 4 -q 3 -lowpass 17 -b 128
Audio #2
ID : 2
Format : MPEG Audio
Format version : Version 1
Format profile : Layer 3
Mode : Joint stereo
Mode extension : MS Stereo
Codec ID : 55
Codec ID/Hint : MP3
Duration : 1h 36mn
Bit rate mode : Constant
Bit rate : 128 Kbps
Channel(s) : 2 channels
Sampling rate : 48.0 KHz
Compression mode : Lossy
Stream size : 88.5 MiB (11%)
Alignment : Aligned on interleaves
Interleave, duration : 40 ms (1.00 video frame)
Interleave, preload duration : 504 ms
Writing library : LAME3.99r
Encoding settings : -m j -V 4 -q 2 -lowpass 17 -b 128

Скриншоты

[Профиль] [ЛС]
Кто просматривает тему:

Форум Тема Автор Размер
Музыка других жанров (Music from other genres) (Pop) Жанна Фриске - Жанна (+ новый трек «Мама Мария») - 2006 [FLAC, image+.cue, lossless] sergej644 383 MB
Pop (Pop) Жанна Фриске - Светлая память тебе! (2015) MP3 BOSS 844 MB
BBC BBC: Жанна д’Арк – святая воительница / Joan of Arc: God's Warrior (Luct Swindler) [2015 г., Документальный, постановочный, история, HDTVRip 720p] skorpionN 1.59 GB
Документальные HD Жанна Прохоренко. "Оставляю Вам Свою Любовь..." (Ирина Крячко) [2015, Документальный, HDTV 720p] TorrentFilm 1.46 GB
Фильмы 2011 года Жанна Пуассон, маркиза де Помпадур / Jeanne Poisson, Marquise de Pompadour (Робин Дэвис / Robin Davis) [2006, Франция, история, DVDRip] DVO (RedDiamond Studio) + Sub Rus (Lisok) + Original Fre TorrentFilm 2.93 GB
Отечественные cериалы Реальные пацаны (Реальная семья)(7 сезон 1-20 серия из 20) (Жанна Кадникова) [2015 г., Комедия, SATRip] достали все 5.97 GB
Отечественные cериалы Реальные пацаны [S07] (Жанна Кадникова) [2015, Комедийный телесериал] WEB-DLRip BOSS 6.15 GB
Показать сообщения:    

Текущее время: Сегодня 10:31

Часовой пояс: GMT



Вы не можете начинать темы
Вы не можете отвечать на сообщения
Вы не можете редактировать свои сообщения
Вы не можете удалять свои сообщения
Вы не можете голосовать в опросах
Вы не можете прикреплять файлы к сообщениям
Вы не можете скачивать файлы