Жажда скорости в 3Д / Need for Speed 3D (Скотт Во / Scott Waugh) [2014, боевик, триллер, драма, криминал, BDrip, 1080p] OverUnder / Вертикальная стереопара

 
Автор Сообщение

TorrentFilm ®

Пол:

Стаж: 2 года

Сообщений: 7741



Награды: Нет

Торрент-статистика

Создавать темы 29-Фев-2016 00:00

[Цитировать]

Жажда скорости / Need for Speed
Год выпуска: 2014
Страна: США, Филиппины, Ирландия, Великобритания
Студия: DreamWorks SKG, Electronic Arts
Жанр: боевик, триллер, драма, криминал
Продолжительность: 02:10:42
Перевод: Профессиональный (дублированный)
Русские субтитры: нет
Режиссер на русском: Скотт Во
Режиссер на английском: Scott Waugh
В ролях: Аарон Пол, Доминик Купер, Имоджен Путс, Дакота Джонсон, Майкл Китон, Рамон Родригес, Ник Чинланд, Кид Кади, Рэми Малек
Описание: В центре событий фильма «Need for Speed: Жажда скорости» (Need for Speed) – Тоби Маршалл (Аарон Пол), автомеханик и по совместительству уличный гонщик, которого подставил его деловой партнер Дино (Доминик Купер).Оказавшись в тюрьме по несправедливому обвинению и отсидев срок, герой картины «Need for Speed: Жажда скорости» выходит на свободу два года спустя с огромным желанием отомстить. Единственный шанс для него сделать это – победить его соперника Дино в автогонках с высокими ставками – Суперкубке подпольных уличных гонок. Чтобы успеть на эту гонку, остается совсем немного времени. Но Тоби вместе с его верным экипажем использует все шансы, верный своему желанию доказать, что даже в роскошном мире суперкаров проигравший все еще может прийти первым.
Сэмпл: http://sendfile.su/1004077
Качество: BDrip
Контейнер: MKV
Формат 3D: OverUnder / Вертикальная стереопара
Порядок ракурсов: левый ракурс первый
Видео кодек: x264
Аудио кодек: AC3
Видео: AVC / High@L5.0 / 23,976 fps / 1920х1600 / 16,0 Мбит/сек
Аудио: Русский / AC3 / 48 KHz / 5.1 ch / 640 Кбит/сек
Аудио 2: Английский / AC3 / 48 KHz / 5.1 ch / 640 Кбит/сек
Релиз группы: ВНИМАНИЕ ! На встроенных ТВ-плеерах работать не будет!!!
ТВ Samsung в названии которого есть надпись Ultra HD воспроизводят полные стереопары встроенными плеерами
Железные плееры на которых воспроизводятся полные стереопары:Popcorn C-200 , Dune HD Smart D1 , Dune HD DUO , Dune HD Smart H1 , Dune HD Smart B1 , Dune HD Max , Dune HD TV-303D , Dune HD Base 3D

MediaInfo

Общее
Уникальный идентификатор : 234663889859258617666138691524881464991 (0xB08A9F093BA1C33A92950E5505B2BE9F)
Полное имя : E:\закачки\Need for Speed.Rip by SeRoGa00.mkv
Формат : Matroska
Версия формата : Version 2
Размер файла : 16,2 Гбайт
Продолжительность : 2 ч. 10 м.
Общий поток : 17,7 Мбит/сек
Дата кодирования : UTC 2014-07-22 05:18:34
Программа кодирования : mkvmerge v3.4.0 ('Rapunzel') сборка от May 15 2010 09:38:20
Библиотека кодирования : libebml v0.8.0 + libmatroska v0.9.0
Видео
Идентификатор : 1
Формат : AVC
Формат/Информация : Advanced Video Codec
Профиль формата : High@L5.0
Параметр CABAC формата : Да
Параметр ReFrames формата : 4 кадра
Идентификатор кодека : V_MPEG4/ISO/AVC
Продолжительность : 2 ч. 10 м.
Битрейт : 16,0 Мбит/сек
Ширина : 1920 пикселей
Высота : 1600 пикселей
Соотношение сторон : 1,200
Частота кадров : 23,976 кадра/сек
Цветовое пространство : YUV
Субдискретизация насыщенности : 4:2:0
Битовая глубина : 8 бит
Тип развёртки : Прогрессивная
Бит/(Пиксели*Кадры) : 0.218
Размер потока : 14,7 Гбайт (91%)
Заголовок : Rip by SeRoGa00
Библиотека кодирования : x264 core 142 r2431 ac76440
Настройки программы : cabac=1 / ref=4 / deblock=1:-3:-3 / analyse=0x3:0x113 / me=umh / subme=9 / psy=1 / psy_rd=1.00:0.15 / mixed_ref=1 / me_range=24 / chroma_me=1 / trellis=2 / 8x8dct=1 / cqm=0 / deadzone=21,11 / fast_pskip=1 / chroma_qp_offset=-3 / threads=9 / lookahead_threads=1 / sliced_threads=0 / nr=0 / decimate=1 / interlaced=0 / bluray_compat=0 / constrained_intra=0 / bframes=8 / b_pyramid=2 / b_adapt=2 / b_bias=0 / direct=3 / weightb=1 / open_gop=0 / weightp=2 / keyint=250 / keyint_min=23 / scenecut=40 / intra_refresh=0 / rc_lookahead=60 / rc=crf / mbtree=1 / crf=18.0 / qcomp=0.60 / qpmin=10 / qpmax=69 / qpstep=4 / vbv_maxrate=40000 / vbv_bufsize=40000 / crf_max=0.0 / nal_hrd=none / filler=0 / ip_ratio=1.40 / aq=1:1.00
Язык : English
Аудио #1
Идентификатор : 2
Формат : AC-3
Формат/Информация : Audio Coding 3
Расширение режима : CM (complete main)
Идентификатор кодека : A_AC3
Продолжительность : 2 ч. 10 м.
Вид битрейта : Постоянный
Битрейт : 640 Кбит/сек
Каналы : 6 каналов
Расположение каналов : Front: L C R, Side: L R, LFE
Частота : 48,0 КГц
Битовая глубина : 16 бит
Метод сжатия : С потерями
Размер потока : 599 Мбайт (4%)
Язык : Russian
Аудио #2
Идентификатор : 3
Формат : AC-3
Формат/Информация : Audio Coding 3
Расширение режима : CM (complete main)
Идентификатор кодека : A_AC3
Продолжительность : 2 ч. 10 м.
Вид битрейта : Постоянный
Битрейт : 640 Кбит/сек
Каналы : 6 каналов
Расположение каналов : Front: L C R, Side: L R, LFE
Частота : 48,0 КГц
Битовая глубина : 16 бит
Метод сжатия : С потерями
Размер потока : 599 Мбайт (4%)
Язык : English

Скриншоты


[Профиль] [ЛС]
Показать сообщения:    

Текущее время: Сегодня 22:42

Часовой пояс: GMT



Вы не можете начинать темы
Вы не можете отвечать на сообщения
Вы не можете редактировать свои сообщения
Вы не можете удалять свои сообщения
Вы не можете голосовать в опросах
Вы не можете прикреплять файлы к сообщениям
Вы не можете скачивать файлы