Жадность / Greedy (Джонатан Линн / Jonathan Lynn) [1994 г., комедия, HDRip] MVO

 
Автор Сообщение

AleksSin ®

Пол:

Стаж: 6 лет

Сообщений: 218



Награды: 4 (Подробнее)

Mega Seeder 4 (Количество: 1) Mega Seeder 2 (Количество: 1) Mega Seeder 1 (Количество: 1)
Торрент-статистика

Создавать темы 11-Окт-2015 12:38

[Цитировать]

Жадность / GreedyWhere there's a will...there's a relative Год выпуска: 1994
Страна: США
Жанр: комедия
Продолжительность: 01:52:21
Перевод: Профессиональный (многоголосый, закадровый)
Субтитры: нет
Режиссер: Джонатан Линн / Jonathan Lynn
В ролях: Майкл Дж. Фокс, Кирк Дуглас, Нэнси Трэвис, Оливия д’Або, Фил Хартмен, Эд Бегли мл., Джер Бернс, Коллин Кэмп, Боб Бэлабан, Джойс Хизер
Описание: Жадность часто толкает на неблаговидные поступки в погоне за вожделенными деньгами. Это отлично понимает старый лукавый миллионер Джо МакТиг. У него нет своих детей и прямых наследников. Зато, есть куча дальних и близких родственников, стаей кружащихся вокруг него в надежде отхватить лакомый кусок от дядюшкиного наследства.Старик играет с ними, как кошка с мышками. Когда же возникает угроза их планам в лице молоденькой "медсестры", на которую старик явно положил глаз, они призывают на помощь еще одного племянника, которого дядюшка любил маленьким, но поссорившись с его отцом, давно не видел.

Качество: HDRip (Исх. BDRip 720p)
Формат: AVI
Видео кодек: XviD
Аудио кодек: AC3
Видео: 704x384 (1.83:1), 23.976 fps, XviD build 73 ~1462 kbps avg, 0.23 bit/pixel
Аудио: 48 kHz, AC3 Dolby Digital, 2/0 (L,R) ch, ~384 kbps

MediaInfo

Общее
Полное имя : S:ФильмыЖадность. 1994. HDRip. 1.45 (AleksSin).avi
Формат : AVI
Формат/Информация : Audio Video Interleave
Размер файла : 1,46 Гбайт
Продолжительность : 1 ч. 52 м.
Общий поток : 1856 Кбит/сек
Программа кодирования : VirtualDubMod 1.5.10.3 | www.virtualdub-fr.org || (build 2550/release)
Библиотека кодирования : VirtualDubMod build 2550/release
Видео
Идентификатор : 0
Формат : MPEG-4 Visual
Профиль формата : Advanced Simple@L5
Параметр BVOP формата : 1
Параметр QPel формата : Нет
Параметр GMC формата : Без точки перехода
Параметр матрицы формата : Выборочная
Идентификатор кодека : XVID
Идентификатор кодека/Подсказка : XviD
Продолжительность : 1 ч. 52 м.
Битрейт : 1462 Кбит/сек
Ширина : 704 пикселя
Высота : 384 пикселя
Соотношение сторон : 1,85:1
Частота кадров : 23,976 кадра/сек
Цветовое пространство : YUV
Субдискретизация насыщенности : 4:2:0
Битовая глубина : 8 бит
Тип развёртки : Прогрессивная
Метод сжатия : С потерями
Бит/(Пиксели*Кадры) : 0.226
Размер потока : 1,15 Гбайт (79%)
Библиотека кодирования : XviD 73
Аудио
Идентификатор : 1
Формат : AC-3
Формат/Информация : Audio Coding 3
Расширение режима : CM (complete main)
Параметр Endianness формата : Big
Идентификатор кодека : 2000
Продолжительность : 1 ч. 52 м.
Вид битрейта : Постоянный
Битрейт : 384 Кбит/сек
Каналы : 2 канала
Расположение каналов : Front: L R
Частота : 48,0 КГц
Битовая глубина : 16 бит
Метод сжатия : С потерями
Размер потока : 309 Мбайт (21%)
Выравнивание : Разделение по промежуткам
Продолжительность промежутка : 42 мс. (1,00 видеокадр)
Время предзагрузки промежутка : 500 мс.

Скриншоты

[Профиль] [ЛС]
Кто просматривает тему:

Форум Тема Автор Размер
R.G.TorrentFilm Video Жадность / Greedy (Джонатан Линн / Jonathan Lynn) [1994 г., комедия, BDRip 720p] MVO + AO AleksSin 6.83 GB
Показать сообщения:    

Текущее время: Сегодня 01:08

Часовой пояс: GMT



Вы не можете начинать темы
Вы не можете отвечать на сообщения
Вы не можете редактировать свои сообщения
Вы не можете удалять свои сообщения
Вы не можете голосовать в опросах
Вы не можете прикреплять файлы к сообщениям
Вы не можете скачивать файлы