Жадность / Greedy (Джонатан Линн / Jonathan Lynn) [1994 г., комедия, BDRip 720p] MVO + AO

 
Автор Сообщение

AleksSin ®

Пол:

Стаж: 6 лет

Сообщений: 218



Награды: 4 (Подробнее)

Mega Seeder 2 (Количество: 1) Mega Seeder 1 (Количество: 1) Mega Seeder 4 (Количество: 1)
Торрент-статистика

Создавать темы 10-Окт-2015 18:37

[Цитировать]

Жадность / GreedyWhere there's a will...there's a relative Год выпуска: 1994
Страна: США
Жанр: комедия
Продолжительность: 01:52:21
Перевод: Профессиональный (многоголосый, закадровый)х2, авторский (одноголосый, закадровый) А.Михалёв
Режиссер: Джонатан Линн / Jonathan Lynn
В ролях: Майкл Дж. Фокс, Кирк Дуглас, Нэнси Трэвис, Оливия д’Або, Фил Хартмен, Эд Бегли мл., Джер Бернс, Коллин Кэмп, Боб Бэлабан, Джойс Хизер
Описание: Жадность часто толкает на неблаговидные поступки в погоне за вожделенными деньгами. Это отлично понимает старый лукавый миллионер Джо МакТиг. У него нет своих детей и прямых наследников. Зато, есть куча дальних и близких родственников, стаей кружащихся вокруг него в надежде отхватить лакомый кусок от дядюшкиного наследства.Старик играет с ними, как кошка с мышками. Когда же возникает угроза их планам в лице молоденькой "медсестры", на которую старик явно положил глаз, они призывают на помощь еще одного племянника, которого дядюшка любил маленьким, но поссорившись с его отцом, давно не видел.

Качество: BDRip 720p (Исх. Blu-ray EUR 1080p AVC DTS 2.0)
Формат: MKV
Видео кодек: H.264
Аудио кодек: AC3, DTS
Видео: MPEG-4 AVC, 5933 Кбит/с, 1280x694 (1,85:1), 23,976 кадра/сек, 0.279 bit/pixel
Аудио #1: Русский (AC3, 2 ch, 48,0 КГц, 16 бит, 448 Кбит/с) - Профессиональный многоголосый (Blu-Ray EUR)
Аудио #2: Русский (AC3, 6 ch, 48,0 КГц, 16 бит, 384 Кбит/с) - Профессиональный многоголосый (R5)
Аудио #3: Русский (AC3, 2 ch, 48,0 КГц, 16 бит, 256 Кбит/с) - Авторский одноголосый (Михалев)
Аудио #4: Английский (DTS, 6 ch, 48,0 КГц, 24 бит, 1509 Кбит/c) - Английский - Оригинал
Субтитры: Русские
Навигация по главам: Есть

MediaInfo

Общее
Уникальный идентификатор : 227588107756173042559343202291651254503 (0xAB37E00B3BAFAFA9AF0E88EF2E9518E7)
Полное имя : S:ФильмыЖадность. 1994. BDRip 720p (AleksSin).mkv
Формат : Matroska
Версия формата : Version 4 / Version 2
Размер файла : 6,83 Гбайт
Продолжительность : 1 ч. 52 м.
Общий поток : 8704 Кбит/сек
Дата кодирования : UTC 2015-10-10 17:35:55
Программа кодирования : mkvmerge v8.1.0 ('Psychedelic Postcard') 32bit
Библиотека кодирования : libebml v1.3.1 + libmatroska v1.4.2
DURATION : 01:48:13.611000000
NUMBER_OF_FRAMES : 1690
NUMBER_OF_BYTES : 76854
_STATISTICS_WRITING_APP : mkvmerge v8.1.0 ('Psychedelic Postcard') 32bit
_STATISTICS_WRITING_DATE_UTC : 2015-10-10 17:35:55
_STATISTICS_TAGS : BPS DURATION NUMBER_OF_FRAMES NUMBER_OF_BYTES
Видео
Идентификатор : 1
Формат : AVC
Формат/Информация : Advanced Video Codec
Профиль формата : High@L4.1
Параметр CABAC формата : Да
Параметр ReFrames формата : 9 кадров
Идентификатор кодека : V_MPEG4/ISO/AVC
Продолжительность : 1 ч. 52 м.
Битрейт : 5933 Кбит/сек
Ширина : 1280 пикселей
Высота : 694 пикселя
Соотношение сторон : 1,85:1
Режим частоты кадров : Постоянный
Частота кадров : 23,976 кадра/сек
Цветовое пространство : YUV
Субдискретизация насыщенности : 4:2:0
Битовая глубина : 8 бит
Тип развёртки : Прогрессивная
Бит/(Пиксели*Кадры) : 0.279
Размер потока : 4,66 Гбайт (68%)
Библиотека кодирования : x264 core 146 r2538 121396c
Настройки программы : cabac=1 / ref=9 / deblock=1:-3:-3 / analyse=0x3:0x133 / me=umh / subme=11 / psy=1 / psy_rd=1.00:0.00 / mixed_ref=1 / me_range=32 / chroma_me=1 / trellis=2 / 8x8dct=1 / cqm=0 / deadzone=21,11 / fast_pskip=1 / chroma_qp_offset=-2 / threads=12 / lookahead_threads=2 / sliced_threads=0 / nr=0 / decimate=1 / interlaced=0 / bluray_compat=0 / constrained_intra=0 / bframes=8 / b_pyramid=2 / b_adapt=2 / b_bias=0 / direct=1 / weightb=1 / open_gop=0 / weightp=2 / keyint=250 / keyint_min=23 / scenecut=40 / intra_refresh=0 / rc=crf / mbtree=0 / crf=17.8 / qcomp=0.60 / qpmin=0 / qpmax=69 / qpstep=4 / ip_ratio=1.40 / pb_ratio=1.30 / aq=1:1.00
Default : Да
Forced : Нет
Аудио #1
Идентификатор : 2
Формат : AC-3
Формат/Информация : Audio Coding 3
Расширение режима : CM (complete main)
Параметр Endianness формата : Big
Идентификатор кодека : A_AC3
Продолжительность : 1 ч. 52 м.
Вид битрейта : Постоянный
Битрейт : 448 Кбит/сек
Каналы : 2 канала
Расположение каналов : Front: L R
Частота : 48,0 КГц
Битовая глубина : 16 бит
Метод сжатия : С потерями
Размер потока : 360 Мбайт (5%)
Default : Да
Forced : Нет
Аудио #2
Идентификатор : 3
Формат : AC-3
Формат/Информация : Audio Coding 3
Расширение режима : CM (complete main)
Параметр Endianness формата : Big
Идентификатор кодека : A_AC3
Продолжительность : 1 ч. 52 м.
Вид битрейта : Постоянный
Битрейт : 384 Кбит/сек
Каналы : 6 каналов
Расположение каналов : Front: L C R, Side: L R, LFE
Частота : 48,0 КГц
Битовая глубина : 16 бит
Метод сжатия : С потерями
Размер потока : 309 Мбайт (4%)
Default : Нет
Forced : Нет
Аудио #3
Идентификатор : 4
Формат : AC-3
Формат/Информация : Audio Coding 3
Расширение режима : CM (complete main)
Параметр Endianness формата : Big
Идентификатор кодека : A_AC3
Продолжительность : 1 ч. 52 м.
Вид битрейта : Постоянный
Битрейт : 256 Кбит/сек
Каналы : 2 канала
Расположение каналов : Front: L R
Частота : 48,0 КГц
Битовая глубина : 16 бит
Метод сжатия : С потерями
Размер потока : 206 Мбайт (3%)
Default : Нет
Forced : Нет
Аудио #4
Идентификатор : 5
Формат : DTS
Формат/Информация : Digital Theater Systems
Режим : 16
Параметр Endianness формата : Big
Идентификатор кодека : A_DTS
Продолжительность : 1 ч. 52 м.
Вид битрейта : Постоянный
Битрейт : 1509 Кбит/сек
Каналы : 6 каналов
Расположение каналов : Front: L C R, Side: L R, LFE
Частота : 48,0 КГц
Битовая глубина : 24 бит
Метод сжатия : С потерями
Размер потока : 1,18 Гбайт (17%)
Default : Нет
Forced : Нет
Текст
Идентификатор : 6
Формат : UTF-8
Идентификатор кодека : S_TEXT/UTF8
Идентификатор кодека/Информация : UTF-8 Plain Text
Default : Да
Forced : Нет
Меню
00:00:00.000 : en:
00:05:00.000 : en:
00:10:00.000 : en:
00:15:00.000 : en:
00:20:00.000 : en:
00:25:00.000 : en:
00:30:00.000 : en:
00:35:00.000 : en:
00:40:00.000 : en:
00:45:00.000 : en:
00:50:00.000 : en:
00:55:00.000 : en:
01:00:00.000 : en:

Скриншоты

[Профиль] [ЛС]
Кто просматривает тему:

Форум Тема Автор Размер
R.G.TorrentFilm Video Жадность / Greedy (Джонатан Линн / Jonathan Lynn) [1994 г., комедия, HDRip] MVO AleksSin 1.46 GB
Показать сообщения:    

Текущее время: Сегодня 00:47

Часовой пояс: GMT



Вы не можете начинать темы
Вы не можете отвечать на сообщения
Вы не можете редактировать свои сообщения
Вы не можете удалять свои сообщения
Вы не можете голосовать в опросах
Вы не можете прикреплять файлы к сообщениям
Вы не можете скачивать файлы