Её запах / Her Smell (2018) BDRip 1080p | HDRezka Studio

 
Author Message

BOSS ®

Gender:

Longevity: 4 years 10 months

Posts: 14162

Location: ODESSA



: 22 ()

Mega Seeder 1 (1) Top Releaser 3 (1) Top Seeder 4 (1)
Торрент-статистика

Post 11-Aug-2019 19:20

[Quote]

Название: Её запах
Оригинальное название: Her Smell
Год выхода: 2018
Страна: США, Греция
Студия: Bow and Arrow Entertainment, Faliro House Productions
Продолжительность: 02:15:33
Жанр: драма, музыка
Режиссер: Алекс Росс Перри
В ролях: Элизабет Мосс, Кара Делевинь, Дэн Стивенс, Агнесс Дейн, Гэйл Ранкин, Эшли Бенсон, Дилан Гелула, Ика Дэрвилл, Линдси Бёрдж, Ханна Гросс, ...
Перевод:
- Профессиональный (многоголосый, закадровый) HDRezka Studio
- Субтитры
О фильме: Мятежная панк-звезда Бекки пытается вернуть себе вдохновение, которое когда-то привело её рок-группу к успеху. Для этого ей нужно разобраться в отношениях со своими коллегами и с бывшим мужем, а главное — поставить точку в многолетней борьбе с алкоголизмом…

Кодек: x264
Качество: BDRip 1080p
Видео: 1920x804, 11500 kbps, 23,976 fps
Аудио #1: AC-3, 2 ch, 192 kbps (Rus) - MVO HDRezka Studio
Аудио #2: DTS, 6 ch, 1509 kbps (Eng)
Субтитры: русские, английские

MediaInfo

Общее
Уникальный идентификатор : 246497274863026966906822750020772740569 (0xB971A5F6209AAD6C95CBA93450C2BDD9)
Полное имя : Её запах (Her Smell) 2018 BDRip 1080p.mkv
Формат : Matroska
Версия формата : Version 2
Размер файла : 12,5 Гбайт
Продолжительность : 2 ч. 15 м.
Общий поток : 13,2 Мбит/сек
Дата кодирования : UTC 2019-08-04 13:25:40
Программа кодирования : mkvmerge v4.0.0 ('The Stars were mine') сборка от Jun 6 2010 16:18:42
Библиотека кодирования : libebml v1.0.0 + libmatroska v1.0.0
Видео
Идентификатор : 1
Формат : AVC
Формат/Информация : Advanced Video Codec
Профиль формата : High@L4.1
Параметр CABAC формата : Да
Параметр ReFrames формата : 4 кадра
Идентификатор кодека : V_MPEG4/ISO/AVC
Продолжительность : 2 ч. 15 м.
Битрейт : 11,5 Мбит/сек
Ширина : 1920 пикселей
Высота : 804 пикселя
Соотношение сторон : 2,40:1
Режим частоты кадров : Постоянный
Частота кадров : 23,976 (24000/1001) кадра/сек
Цветовое пространство : YUV
Субдискретизация насыщенности : 4:2:0
Битовая глубина : 8 бит
Тип развёртки : Прогрессивная
Бит/(Пиксели*Кадры) : 0.311
Размер потока : 10,6 Гбайт (85%)
Библиотека кодирования : x264 core 148 r2748 97eaef2
Настройки программы : cabac=1 / ref=4 / deblock=1:-2:-2 / analyse=0x3:0x113 / me=umh / subme=9 / psy=1 / psy_rd=1.00:0.15 / mixed_ref=1 / me_range=16 / chroma_me=1 / trellis=2 / 8x8dct=1 / cqm=0 / deadzone=21,11 / fast_pskip=1 / chroma_qp_offset=-3 / threads=24 / lookahead_threads=3 / sliced_threads=0 / nr=0 / decimate=1 / interlaced=0 / bluray_compat=0 / constrained_intra=0 / bframes=3 / b_pyramid=2 / b_adapt=1 / b_bias=0 / direct=3 / weightb=1 / open_gop=0 / weightp=2 / keyint=250 / keyint_min=25 / scenecut=40 / intra_refresh=0 / rc_lookahead=50 / rc=2pass / mbtree=1 / bitrate=11500 / ratetol=1.0 / qcomp=0.60 / qpmin=0 / qpmax=69 / qpstep=4 / cplxblur=20.0 / qblur=0.5 / vbv_maxrate=31250 / vbv_bufsize=31250 / nal_hrd=none / filler=0 / ip_ratio=1.40 / aq=1:1.00
Язык : English
Default : Нет
Forced : Нет
Аудио #1
Идентификатор : 2
Формат : AC-3
Формат/Информация : Audio Coding 3
Расширение режима : CM (complete main)
Параметр Endianness формата : Big
Идентификатор кодека : A_AC3
Продолжительность : 2 ч. 15 м.
Вид битрейта : Постоянный
Битрейт : 192 Кбит/сек
Каналы : 2 канала
Расположение каналов : Front: L R
Частота : 48,0 КГц
Частота кадров : 31,250 кадров/сек (1536 spf)
Метод сжатия : С потерями
Размер потока : 186 Мбайт (1%)
Заголовок : MVO HDRezka Studio
Язык : Russian
Default : Нет
Forced : Нет
Аудио #2
Идентификатор : 4
Формат : DTS
Формат/Информация : Digital Theater Systems
Режим : 16
Параметр Endianness формата : Big
Идентификатор кодека : A_DTS
Продолжительность : 2 ч. 15 м.
Вид битрейта : Постоянный
Битрейт : 1509 Кбит/сек
Каналы : 6 каналов
Расположение каналов : Front: L C R, Side: L R, LFE
Частота : 48,0 КГц
Частота кадров : 93,750 кадра/сек (512 spf)
Битовая глубина : 24 бит
Метод сжатия : С потерями
Размер потока : 1,43 Гбайт (11%)
Язык : English
Default : Нет
Forced : Нет
Текст #1
Идентификатор : 3
Формат : UTF-8
Идентификатор кодека : S_TEXT/UTF8
Идентификатор кодека/Информация : UTF-8 Plain Text
Язык : Russian
Default : Нет
Forced : Нет
Текст #2
Идентификатор : 5
Формат : UTF-8
Идентификатор кодека : S_TEXT/UTF8
Идентификатор кодека/Информация : UTF-8 Plain Text
Язык : English
Default : Нет
Forced : Нет
Меню
00:00:00.000 : :Chapter 01
00:10:00.600 : :Chapter 02
00:20:01.200 : :Chapter 03
00:30:01.800 : :Chapter 04
00:40:02.400 : :Chapter 05
00:50:03.000 : :Chapter 06
01:00:03.600 : :Chapter 07
01:10:04.200 : :Chapter 08
01:20:04.800 : :Chapter 09
01:30:05.400 : :Chapter 10
01:40:06.000 : :Chapter 11
01:50:06.600 : :Chapter 12
02:00:07.200 : :Chapter 13
02:10:07.800 : :Chapter 14
02:15:32.624 : :Chapter 15

[Profile] [PM]
Кто просматривает тему:

Display posts from previous:    

The time now is: Today 15:43

All times are GMT



You cannot post new topics in this forum
You cannot reply to topics in this forum
You cannot edit your posts in this forum
You cannot delete your posts in this forum
You cannot vote in polls in this forum
You cannot attach files in this forum
You cannot download files in this forum