Естественный отбор / Опасные игры / Jeux dangereux / Selection naturelle / Natural Selection (Режи Мюссе / Regis Musset) [2010, Франция, психологический триллер, DVB] Original (Fre) + Sub (Rus, Eng, Fre, Deu)

 
Автор Сообщение

TorrentFilm ®

Пол:

Стаж: 2 года

Сообщений: 7741



Награды: Нет

Торрент-статистика

Создавать темы 17-Июн-2015 17:19

[Цитировать]

Естественный отбор
Jeux dangereux- Страна: Франция
Жанр: психологический триллер
Год выпуска: 2010
Продолжительность: 01:31:14Перевод: Субтитры (перевод Éclair Group)
Cубтитры: русские, английские, французские, немецкие, нидерландские, румынские
Оригинальная аудиодорожка: французский
Режиссер: Режи Мюссе / Régis Musset
В ролях: Фредерик Дифенталь / Frédéric Diefenthal (Antonin Brecht), Сэм Карманн / Sam Karmann (Jean-Baptiste Pirelli), Элен Дежи / Hélène Degy (Nora Merteuil), Гаэла Ле Девеа / Gaëla Le Devehat (Sandrine), Бернар Ланно / Bernard Lanneau (Concini)
Описание: Фильм начинается с того, что мужчина в деловом костюме выходит из современного офисного здания в Париже с пакетом каких-то бумаг. Вскоре он замечает преследователей, спасаясь от которых, он бросается в Сену… Шестью месяцами ранее Антонен Брехт жил в своем загородном доме с женщиной, которую любил, в окружении давних верных друзей. И ничто не предвещало того, что приняв заманчивое деловое предложение, он рискует потерять все: уважение к себе и, даже, жизнь…
Фильм снят в 2010 году. Премьерный показ фильма под названием "Естественный отбор" был анонсирован на 12 октября 2011 года, но был снят с эфира и заменен политической дискуссией. Премьера фильма уже под другим названием "Опасные игры" состоялась на канале France 2 21 марта 2012 года.
Доп. информация: Hot Bird (13.0°E) TV5MONDE Europe DVB-S

Качество видео: DVB
Формат видео: DVD Video
Видео: MPEG Video 2, 720x576@1024x576 (16:9), 25 fps, ~3227 kbps avg, 0.311 bit/pixel
Аудио: MPEG Audio 2, 2 ch, 48 kHz, ~192.00 kbps avg - французский
Формат субтитров: prerendered (IDX+SUB)

DVDInfo, MediaInfo

Title: [apreder]Jeux_dangereux(2010)DVBSize: 2.22 Gb ( 2 326 568,00 KBytes ) - DVD-5Enabled regions: 1, 2, 3, 4, 5, 6, 7, 8
VTS_01 : Play Length: 01:31:14 Video: PAL 16:9 (720x576) VBR, Auto Letterboxed Audio: Francais (MPEG1, 4 ch) Subtitles: Russian English Francais Deutsch Nederlands Romanian
ОбщееПолное имя : F:\My Torrents 3\[apreder]Jeux_dangereux(2010)DVB\VIDEO_TS\VTS_01_1.VOBФормат : MPEG-PSРазмер файла : 1024 МбайтПродолжительность : 41 м.Режим общего битрейта : ПеременныйОбщий поток : 3488 Кбит/сек
ВидеоИдентификатор : 224 (0xE0)Формат : MPEG VideoВерсия формата : Version 2Профиль формата : Main@MainПараметр BVOP формата : ДаПараметр матрицы формата : ВыборочнаяПараметр GOP формата : M=4, N=12Format_Settings_PictureStructure : FrameПродолжительность : 41 м.Вид битрейта : ПеременныйБитрейт : 3227 Кбит/секШирина : 720 пикселейВысота : 576 пикселейСоотношение сторон : 16:9Частота кадров : 25,000 кадров/секСтандарт вещания : PALЦветовое пространство : YUVСубдискретизация насыщенности : 4:2:0Битовая глубина : 8 битТип развёртки : ЧересстрочнаяПорядок развёртки : Верхнее поле первоеМетод сжатия : С потерямиБит/(Пиксели*Кадры) : 0.311Временной код первого кадра : 00:00:00:00Оригинал временного кода : Group of pictures headerРазмер потока : 947 Мбайт (93%)
АудиоИдентификатор : 192 (0xC0)Формат : MPEG AudioВерсия формата : Version 1Профиль формата : Layer 2Режим : Joint stereoРасширение режима : Intensity Stereo + MS StereoПродолжительность : 41 м.Вид битрейта : ПостоянныйБитрейт : 192 Кбит/секКаналы : 2 каналаЧастота : 48,0 КГцМетод сжатия : С потерямиРазмер потока : 56,4 Мбайт (6%)
Текст #1Идентификатор : 189 (0xBD)-32 (0x20)Формат : RLEФормат/Информация : Run-length encodingРежим смешивания : DVD-VideoПродолжительность : 40 м.Задержка видео : 4 с. 160 мс.
Текст #2Идентификатор : 189 (0xBD)-33 (0x21)Формат : RLEФормат/Информация : Run-length encodingРежим смешивания : DVD-Video
Текст #3Идентификатор : 189 (0xBD)-34 (0x22)Формат : RLEФормат/Информация : Run-length encodingРежим смешивания : DVD-Video
Текст #4Идентификатор : 189 (0xBD)-35 (0x23)Формат : RLEФормат/Информация : Run-length encodingРежим смешивания : DVD-Video
Текст #5Идентификатор : 189 (0xBD)-36 (0x24)Формат : RLEФормат/Информация : Run-length encodingРежим смешивания : DVD-Video
Текст #6Идентификатор : 189 (0xBD)-37 (0x25)Формат : RLEФормат/Информация : Run-length encodingРежим смешивания : DVD-Video

Скриншот c названием фильма

Скриншоты


Резервные скриншоты


-[573]
[Профиль] [ЛС]

Создавать темы 06-Авг-2015 22:29 (спустя 1 месяц 19 дней)

Топик был перенесен из форума Фильмы до 2014 года в форум Фильмы до 2012 года
sergej644
 

Создавать темы 12-Июн-2016 07:55 (спустя 11 месяцев 24 дня)

Топик был перенесен из форума Фильмы 2011 года в форум Фильмы 2010 года
Russian Mafia
 
Кто просматривает тему:

Форум Тема Автор Размер
BBC BBC: Жизнь на Земле / Life on Earth [серии 1-13 из 13] (Дэвид Аттэнборо) [1979 г., Документальный, флора, фауна, природа, естествознание, исследование, BDRip 720p] skorpionN 24.95 GB
Фантастика и фэнтези Евгения Гордеева – Естественный отбор (2016) MP3 Swager 626 MB
Фильмы (HD Rips | 720p, 1080p) Естественный отбор / Natural Selection (2016) WEB-DL 720p | L Russian Mafia 3.2 GB
Фильмы 2016 года Естественный отбор / Natural Selection (2016) WEB-DLRip | L Russian Mafia 1.37 GB
Разное Жданов В.Г. - Уникальный курс естественного восстановления зрения (2013) WEB-DL 720p sergej644 1.06 GB
Документальные HD Лондонский Музей естествознания вживую с Дэвидом Аттенборо / David Attenborough\'s Natural History Museum Alive (Дэниэл М. Смит) [2014, Документальный, научно-познавательный, палеонтология, BDRip... TorrentFilm 2.52 GB
Фильмы 2015 года Неестественный / Unnatural (2015) DVDRip | L достали все 1.36 GB
Фильмы 2015 года Неестественный / Unnatural (2015) DVDRip | L1 BOSS 1.37 GB
Показать сообщения:    

Текущее время: Сегодня 18:41

Часовой пояс: GMT



Вы не можете начинать темы
Вы не можете отвечать на сообщения
Вы не можете редактировать свои сообщения
Вы не можете удалять свои сообщения
Вы не можете голосовать в опросах
Вы не можете прикреплять файлы к сообщениям
Вы не можете скачивать файлы