Если я останусь / If I Stay (Р.Дж. Катлер / R.J. Cutler) [2014, США, драма, BDRip] Dub

 
Автор Сообщение

TorrentFilm ®

Пол:

Стаж: 2 года

Сообщений: 7741



Награды: Нет

Торрент-статистика

Создавать темы 19-Дек-2014 02:00

[Цитировать]

Если я останусь / If I Stay-«Жить, чтобы любить»- Страна: США
Студия: DiNovi Pictures, Metro-Goldwyn-Mayer (MGM), New Line Cinema
Жанр: драма
Год выпуска: 2014
Продолжительность: 01:46:40
Перевод: Профессиональный (дублированный) - | Лицензия - BD CEE |
Cубтитры: нет
Оригинальная аудиодорожка: нет-Режиссер: Р.Дж. Катлер / R.J. Cutler-В ролях: Хлоя Грейс Морец, Мирей Инос, Джейми Блэкли, Джошуа Леонард, Лиана Либерато, Стейси Кич, Габриель Роз, Джейкоб Дейвис, Али Милнер, Аиша Хиндс...-Описание: Мия — талантливая девушка, влюбленная в классическую музыку, в свою виолончель и рокера Адама. Но после автокатастрофы Мия оказывается в коме. Пока тело девушки лежит в больнице, ее душа должна решить, хочет ли она жить дальше или же лучше отправиться в мир иной вслед за своими родными.-Автор рипа: _Flash- -Качество видео: BDRip | Blu-Ray EUR - HDClub |
Формат видео: AVI
Видео: 720x304, 23.976 fps, XviD build 73 ~1510 kbps avg, 0.290 bit/pixel
Аудио: 48 kHz, AC3 Dolby Digital, 3/2 (L,C,R,l,r) + LFE ch, ~448.00 kbps
-

Дополнительно о фильме:

Производство, студия дубляжа, прокат:

MediaInfo

General
Complete name : If I Stay.BDRip.EUR.By_Flash.avi
Format : AVI
Format/Info : Audio Video Interleave
File size : 1.46 GiB
Duration : 1h 46mn
Overall bit rate : 1 966 Kbps
Writing application : VirtualDubMod 1.5.10.3 | www.virtualdub-fr.org || (build 2550/release)
Writing library : VirtualDubMod build 2550/release
Video
ID : 0
Format : MPEG-4 Visual
Format profile : Advanced Simple@L5
Format settings, BVOP : 1
Format settings, QPel : No
Format settings, GMC : No warppoints
Format settings, Matrix : Custom
Codec ID : XVID
Codec ID/Hint : XviD
Duration : 1h 46mn
Bit rate : 1 508 Kbps
Width : 720 pixels
Height : 304 pixels
Display aspect ratio : 2.35:1
Frame rate : 23.976 fps
Color space : YUV
Chroma subsampling : 4:2:0
Bit depth : 8 bits
Scan type : Progressive
Compression mode : Lossy
Bits/(Pixel*Frame) : 0.287
Stream size : 1.12 GiB (77%)
Writing library : XviD 73
Audio
ID : 1
Format : AC-3
Format/Info : Audio Coding 3
Mode extension : CM (complete main)
Format settings, Endianness : Big
Codec ID : 2000
Duration : 1h 46mn
Bit rate mode : Constant
Bit rate : 448 Kbps
Channel(s) : 6 channels
Channel positions : Front: L C R, Side: L R, LFE
Sampling rate : 48.0 KHz
Bit depth : 16 bits
Compression mode : Lossy
Stream size : 342 MiB (23%)
Alignment : Split accross interleaves
Interleave, duration : 42 ms (1.00 video frame)
Interleave, preload duration : 500 ms

Скриншот c названием фильма

Скриншоты

[Профиль] [ЛС]
Кто просматривает тему:

Показать сообщения:    

Текущее время: Сегодня 10:13

Часовой пояс: GMT



Вы не можете начинать темы
Вы не можете отвечать на сообщения
Вы не можете редактировать свои сообщения
Вы не можете удалять свои сообщения
Вы не можете голосовать в опросах
Вы не можете прикреплять файлы к сообщениям
Вы не можете скачивать файлы