Если твоя девушка – зомби / Life After Beth (2014) WEB-DL 720p | ATV | D | iTunes

 
Автор Сообщение

sergej644 ®

Пол:

Стаж: 4 года 11 месяцев

Сообщений: 6046

Откуда: Soviet Union



Награды: Нет

Торрент-статистика

Создавать темы 10-Фев-2015 10:12

[Цитировать]

Если твоя девушка – зомби / Life After Beth (2014) WEB-DL 720p | ATV | D | iTunes
«Будь осторожен в своих желаниях...»
- Год выпуска: 2014
Производство: США / © 2014 LIFE AFTER BETH, LLC All Rights Reserved
Жанр: ужасы, мелодрама, комедия
Режиссер: Джефф Баэна
В ролях: Дэйн ДеХаан, Джон С. Райлли, Обри Плаза, Молли Шеннон, Шерил Хайнс, Пол Райзер, Мэттью Грей Гублер, Анна Кендрик, Эва Ла Даре, Томас МакДонелл
Описание:
Когда у Зака умирает его девушка, он безутешен. Однако вскоре, неожиданно для всех, она чудесным образом возвращается, но в новом качестве — она теперь зомби! Поскольку внешне девушка пока мало чем отличается от себя прежней, а Зак все еще любит ее, он с радостью принимает ее к себе в дом. Правда теперь ему придется смириться с некоторыми ее новыми привычками…

Продолжительность: 01:28:32
Перевод: Дублированный [iTunes]
Cубтитры: Отсутствуют
Качество: WEB-DL [720p]
Видео: MPEG-4 AVC/H.264, 1280x720 (16:9), 4 000 kbps, 24.000 fps
Аудио 1: Русский/Дублированный, AAC / 2.0 / 160 Kbps / 48.0 KHz
Аудио 2: Русский/Дублированный, AC3 / 5.1 / 384 Kbps / 48.0 KHz-

iTunes Meta Tags

Sort Name: Life After Beth
XID: Apple:vendor_id:2014-725033
Content ID: 904700880
Copyright: © 2014 LIFE AFTER BETH, LLC All Rights Reserved
ScreenWriters: Джефф Баэна
Producers: Элизабет Дестро, Майкл Закин, Роксанна Андерсон
Director: Джефф Баэна
Cast: Aubrey Plaza (Beth Slocum), Dane DeHaan (Zach Orfman), John C. Reilly (Maury Slocum), Molly Shannon (Geenie Slocum), Cheryl Hines (Judy Orfman), Paul Reiser (Noah Orfman), Anna Kendrick (Erica Wexler), Alia Shawkat (Roz), Matthew Gray Gubler (Kyle Orfman), Eva La Dare (Pearline)
Rating: R
Long Deion: Когда у Зака умирает его девушка, он безутешен. Однако вскоре, неожиданно для всех, она чудесным образом возвращается, но в новом качестве — она теперь зомби! Поскольку внешне девушка пока мало чем отличается от себя прежней, а Зак все еще любит ее, он с радостью принимает ее к себе в дом. Правда теперь ему придется смириться с некоторыми ее новыми привычками…
Deion: Когда у Зака умирает его девушка, он безутешен. Однако вскоре, неожиданно для всех, она чудесным образом возвращается, но в новом качестве — она теперь зомби! Поскольку внешне девушка пока мало чем отличается от себя прежней, а Зак все еще любит ее,
Release Date: 2014-08-15T07:00:00Z
Genre: Comedy
Artist: Jeff Baena
Name: Если твоя девушка – зомби
Comments: «Будь осторожен в своих желаниях...»

MediaInfo

General
Complete name : C:CREATE264mod1outLife.After.Beth.2014.WEB-DL.720p.D.NNM.m4v
Format : MPEG-4
Codec ID : M4V
File size : 2.83 GiB
Duration : 1h 28mn
Overall bit rate mode : Variable
Overall bit rate : 4 583 Kbps
Movie name : Если твоя девушка – зомби
Performer : Jeff Baena
Genre : Comedy
ContentType : Short Film
Deion : Когда у Зака умирает его девушка, он безутешен. Однако вскоре, неожиданно для всех, она чудесным образом возвращается, но в новом качестве — она теперь зомби! Поскольку внешне девушка пока мало чем отличается от себя прежней, а Зак все еще любит ее,
Recorded date : UTC 2014-08-15 07:00:00
Encoded date : UTC 2014-10-03 12:27:02
Tagged date : UTC 2014-10-03 12:56:23
Copyright : © 2014 LIFE AFTER BETH, LLC All Rights Reserved
Cover : Yes
Comment : «Будь осторожен в своих желаниях...»
ContentRating : mpaa|R|400|
Title/Sort : Life After Beth
LongDeion : Когда у Зака умирает его девушка, он безутешен. Однако вскоре, неожиданно для всех, она чудесным образом возвращается, но в новом качестве — она теперь зомби! Поскольку внешне девушка пока мало чем отличается от себя прежней, а Зак все еще любит ее, он с радостью принимает ее к себе в дом. Правда теперь ему придется смириться с некоторыми ее новыми привычками…
HDVideo : Yes
AppleStoreCatalogID : 904700880
Vendor : Apple:vendor_id:2014-725033
Video
ID : 1
Format : AVC
Format/Info : Advanced Video Codec
Format profile : High@L3.1
Format settings, CABAC : No
Format settings, ReFrames : 2 frames
Codec ID : avc1
Codec ID/Info : Advanced Video Coding
Duration : 1h 28mn
Bit rate : 4 028 Kbps
Maximum bit rate : 13.3 Mbps
Width : 1 280 pixels
Height : 720 pixels
Display aspect ratio : 16:9
Frame rate mode : Constant
Frame rate : 24.000 fps
Color space : YUV
Chroma subsampling : 4:2:0
Bit depth : 8 bits
Scan type : Progressive
Bits/(Pixel*Frame) : 0.182
Stream size : 2.49 GiB (88%)
Language : English
Encoded date : UTC 2014-10-03 12:27:02
Tagged date : UTC 2014-10-03 12:27:35
Color primaries : BT.709
Transfer characteristics : BT.709
Matrix coefficients : BT.709
Audio #1
ID : 2
Format : AAC
Format/Info : Advanced Audio Codec
Format profile : LC
Codec ID : 40
Duration : 1h 28mn
Bit rate mode : Variable
Bit rate : 162 Kbps
Maximum bit rate : 192 Kbps
Channel(s) : 2 channels
Channel positions : Front: L R
Sampling rate : 48.0 KHz
Compression mode : Lossy
Stream size : 102 MiB (4%)
Language : Russian
Encoded date : UTC 2014-10-03 12:25:27
Tagged date : UTC 2014-10-03 12:27:35
Audio #2
ID : 3
Format : AC-3
Format/Info : Audio Coding 3
Mode extension : CM (complete main)
Format settings, Endianness : Big
Codec ID : ac-3
Duration : 1h 28mn
Bit rate mode : Constant
Bit rate : 384 Kbps
Channel(s) : 6 channels
Channel positions : Front: L C R, Side: L R, LFE
Sampling rate : 48.0 KHz
Bit depth : 16 bits
Compression mode : Lossy
Stream size : 243 MiB (8%)
Language : Russian
Encoded date : UTC 2014-10-03 12:27:33
Tagged date : UTC 2014-10-03 12:27:35
Menu
ID : 4
Codec ID : text
Duration : 1h 28mn
Encoded date : UTC 2014-10-03 12:28:07
Tagged date : UTC 2014-10-03 12:28:07
Bit rate mode : VBR

Screenshots

[Профиль] [ЛС]
Кто просматривает тему:

Показать сообщения:    

Текущее время: Сегодня 07:13

Часовой пояс: GMT



Вы не можете начинать темы
Вы не можете отвечать на сообщения
Вы не можете редактировать свои сообщения
Вы не можете удалять свои сообщения
Вы не можете голосовать в опросах
Вы не можете прикреплять файлы к сообщениям
Вы не можете скачивать файлы