Если любишь - прости (Ольга Доброва-Куликова) [2013, Россия, Мелодрама, HDTV 1080i]

 
Автор Сообщение

TorrentFilm ®

Пол:

Стаж: 2 года

Сообщений: 7741



Награды: Нет

Торрент-статистика

Создавать темы 28-Фев-2015 00:01

[Цитировать]

Если любишь - прости
Год выпуска: 2013
Производство: Группа компаний «GP»
Жанр: Мелодрама
Продолжительность: 01:30:14
Субтитры: нет
Режиссёр: Ольга Доброва-Куликова
В ролях: Любовь Толкалина, Егор Бероев, Светлана Иванова, Илья Любимов, Дмитрий Фрид, Альберт Филозов, Наталья Бардо, Виктория Райкова, Павел Шумский, Максим Михалёв
Описание: Судья Юлия Гуляева и её муж шеф-повар Эдик отмечают десятилетний юбилей свадьбы. Заглянув на кухню в разгар торжества, Юлия застает Эдика с официанткой Аней в тот самый момент, когда они выясняют отнюдь не производственные отношения. Эдик умоляет Юлю о прощении: с Аней у него ничего серьезного. Но Юля - бескомпромиссный судья, в личной жизни еще более категорична. Теперь все надежды Эдика на Дашу - младшую сестру Юли, которая берется помочь вернуть его в семью...

Качество: HDTV 1080i
Контейнер: TS
Видео: MPEG4 Video (H264) 1920x1080, ~ 7902 Кбит/сек, 25.00fps 0.152 bit/pixel
Аудио #1: AC3, 6 ch, 48,0 КГц, 384 Кбит/с
Аудио #2: MP2, 2 ch, 48,0 КГц, 192 Кбит/с
Доп. информация: в раздаче две Аудио дороги. Так транслировал канал.
Сторонней рекламы нет!

MediaInfo

Общее
Идентификатор : 1 (0x1)
Полное имя : F:\Esli ljubish' prosti.HDTV(1080i).GeneralFilm.ts
Формат : MPEG-TS
Размер файла : 6,92 Гбайт
Продолжительность : 1 ч. 42 м.
Общий поток : 9691 Кбит/сек
Видео
Идентификатор : 5481 (0x1569)
Идентификатор меню : 80 (0x50)
Формат : AVC
Формат/Информация : Advanced Video Codec
Профиль формата : High@L4.0
Параметр CABAC формата : Да
Параметр ReFrames формата : 3 кадра
Идентификатор кодека : 27
Продолжительность : 1 ч. 42 м.
Битрейт : 8630 Кбит/сек
Ширина : 1920 пикс.
Высота : 1080 пикс.
Соотношение сторон : 16:9
Частота кадров : 25,000 кадр/сек
Стандарт вещания : Component
Цветовое пространство : YUV
Подвыборка цветности : 4:2:0
Битовая глубина : 8 бит
Тип развёртки : Чересстрочная
Порядок развёртки : Верхнее поле первое
Бит/(Пиксели*Кадры) : 0.166
Размер потока : 6,16 Гбайт (89%)
Основные цвета : BT.709-5, BT.1361, IEC 61966-2-4, SMPTE RP177
Характеристики трансфера : BT.709-5, BT.1361
Коэффициенты матрицы : BT.709-5, BT.1361, IEC 61966-2-4 709, SMPTE RP177
Аудио #1
Идентификатор : 5484 (0x156C)
Идентификатор меню : 80 (0x50)
Формат : AC-3
Формат/Информация : Audio Coding 3
Расширение режима : CM (complete main)
Идентификатор кодека : 6
Продолжительность : 1 ч. 42 м.
Вид битрейта : Постоянный
Битрейт : 384 Кбит/сек
Каналы : 6 каналов
Расположение каналов : Front: L C R, Side: L R, LFE
Частота : 48,0 КГц
Битовая глубина : 16 бит
Метод сжатия : С потерями
Задержка видео : -80 мс.
Размер потока : 281 Мбайт (4%)
Язык : Russian
Аудио #2
Идентификатор : 5485 (0x156D)
Идентификатор меню : 80 (0x50)
Формат : MPEG Audio
Версия формата : Version 1
Профиль формата : Layer 2
Идентификатор кодека : 3
Продолжительность : 1 ч. 42 м.
Вид битрейта : Постоянный
Битрейт : 192 Кбит/сек
Каналы : 2 канала
Частота : 48,0 КГц
Метод сжатия : С потерями
Задержка видео : -80 мс.
Размер потока : 140 Мбайт (2%)
Язык : Russian
Раздача группы:
Отдельное спасибо за предоставление материала.
Релиз:
Отдельная громадная благодарность Media-Art-Club за созданный постер к раздаче.

Скриншот c названием фильма

Скриншоты

[Профиль] [ЛС]
Кто просматривает тему:

Показать сообщения:    

Текущее время: Сегодня 00:33

Часовой пояс: GMT



Вы не можете начинать темы
Вы не можете отвечать на сообщения
Вы не можете редактировать свои сообщения
Вы не можете удалять свои сообщения
Вы не можете голосовать в опросах
Вы не можете прикреплять файлы к сообщениям
Вы не можете скачивать файлы