Елена (2011) BDRip 1080p от HDClub

 
Автор Сообщение

sergej644 ®

Пол:

Стаж: 4 года 11 месяцев

Сообщений: 6046

Откуда: Soviet Union



Награды: Нет

Торрент-статистика

Создавать темы 05-Авг-2015 22:50

[Цитировать]

Информация о фильме
Название: Елена
Год выхода: 2011
Жанр: драма, мелодрама
Режиссер: Андрей Звягинцев
В ролях: Надежда Маркина, Андрей Смирнов, Василий Мичков, Игорь Огурцов, Юрий Борисов, Рустам Ахмадеев, Оксана Семенова, Евгения Шевченко, Анна Гуляренко, Елена Лядова
О фильме:
История пожилой семейной пары Елены и Владимира. Богатый и скупой Владимир относится к Елене скорее как к служанке, чем к жене. У обоих есть дети от первого брака: у Елены — сын, у Владимира — дочь. Её сын — безработный, который не может прокормить свою жену и двоих детей, они живут только на деньги, которые дает им Елена. Дочь Владимира — богемная девушка.
Владимир попадает в больницу с сердечным приступом. Там его навещает дочь, с которой у него никогда не было хороших отношений, но ее визит все меняет. Выйдя из больницы, Владимир объявляет Елене, что он решил изменить завещание — все деньги получит его дочь, а Елене достанется лишь небольшая пожизненная рента и она не сможет помочь своему сыну. Скромная и послушная Елена решается на отчаянный поступок.

Страна: Россия
Студия: AR Films
Продолжительность: 01:49:31
Перевод: Оригинальный (Blu-ray RUS)
Релиз:
Файл
Формат: Matroska
Видео: 1920x816 at 24.000 fps (True24p), x264@L4.1, ~13.7 Mbps avg
Аудио: 48 kHz, DTS, 3/2 (L,C,R,l,r) + LFE ch, ~1536.00 kbps avg
Субтитры: Russian, English

MI

Общее
Уникальный идентификатор : 240703507096262672582721929661948553424 (0xB515CF27F71C99EDA7937377549AE8D0)
Полное имя : Elena.2011.1080p.BluRay.DTS-Skazhutin.mkv
Формат : Matroska
Версия формата : Version 2
Размер файла : 11,9 Гбайт
Продолжительность : 1 ч. 49 м.
Общий поток : 15,5 Мбит/сек
Дата кодирования : UTC 2011-12-11 06:10:25
Программа кодирования : mkvmerge v5.1.0 ('And so it goes') built on Nov 28 2011 23:58:28
Библиотека кодирования : libebml v1.2.3 + libmatroska v1.3.0
Attachements : cover.jpg / xlog.txt
Видео
Идентификатор : 1
Формат : AVC
Формат/Информация : Advanced Video Codec
Профиль формата : High@L4.1
Параметр CABAC формата : Да
Параметр ReFrames формата : 5 кадров
Идентификатор кодека : V_MPEG4/ISO/AVC
Продолжительность : 1 ч. 49 м.
Битрейт : 13,7 Мбит/сек
Ширина : 1920 пикселей
Высота : 816 пикселей
Соотношение сторон : 2,35:1
Режим частоты кадров : Постоянный
Частота кадров : 24,000 кадра/сек
Цветовое пространство : YUV
Субдискретизация насыщенности : 4:2:0
Битовая глубина : 8 бит
Тип развёртки : Прогрессивная
Бит/(Пиксели*Кадры) : 0.365
Размер потока : 10,5 Гбайт (88%)
Заголовок : Elena.2011.1080p.BluRay.DTS-Skazhutin
Библиотека кодирования : x264 core 120 r2120 0c7dab9
Настройки программы : cabac=1 / ref=5 / deblock=1:-2:-2 / analyse=0x3:0x133 / me=umh / subme=11 / psy=1 / psy_rd=0.95:0.05 / mixed_ref=1 / me_range=48 / chroma_me=1 / trellis=2 / 8x8dct=1 / cqm=0 / deadzone=21,11 / fast_pskip=1 / chroma_qp_offset=-3 / threads=12 / sliced_threads=0 / nr=0 / decimate=1 / interlaced=0 / bluray_compat=0 / constrained_intra=0 / bframes=8 / b_pyramid=2 / b_adapt=2 / b_bias=0 / direct=1 / weightb=1 / open_gop=0 / weightp=2 / keyint=250 / keyint_min=23 / scenecut=40 / intra_refresh=0 / rc_lookahead=40 / rc=crf / mbtree=0 / crf=18.0 / qcomp=0.66 / qpmin=0 / qpmax=69 / qpstep=4 / vbv_maxrate=50000 / vbv_bufsize=62500 / crf_max=0.0 / nal_hrd=none / ip_ratio=1.40 / pb_ratio=1.30 / aq=1:0.90
Язык : Russian
Default : Да
Forced : Нет
Цветовой диапазон : Limited
Коэффициенты матрицы : BT.709
Аудио
Идентификатор : 2
Формат : DTS
Формат/Информация : Digital Theater Systems
Режим : 16
Параметр Endianness формата : Big
Идентификатор кодека : A_DTS
Продолжительность : 1 ч. 49 м.
Вид битрейта : Постоянный
Битрейт : 1509 Кбит/сек
Каналы : 6 каналов
Расположение каналов : Front: L C R, Side: L R, LFE
Частота : 48,0 КГц
Битовая глубина : 24 бит
Метод сжатия : С потерями
Размер потока : 1,15 Гбайт (10%)
Заголовок : Rus DTS 5.1 @ 1509kbps
Язык : Russian
Default : Да
Forced : Нет
Текст #1
Идентификатор : 3
Формат : UTF-8
Идентификатор кодека : S_TEXT/UTF8
Идентификатор кодека/Информация : UTF-8 Plain Text
Заголовок : Eng
Язык : English
Default : Нет
Forced : Нет
Текст #2
Идентификатор : 4
Формат : UTF-8
Идентификатор кодека : S_TEXT/UTF8
Идентификатор кодека/Информация : UTF-8 Plain Text
Заголовок : Rus
Язык : Russian
Default : Нет
Forced : Нет
Меню
00:00:00.000 : en:Chapter 1
00:03:05.083 : en:Chapter 2
00:06:12.041 : en:Chapter 3
00:12:15.750 : en:Chapter 4
00:18:28.333 : en:Chapter 5
00:23:19.708 : en:Chapter 6
00:29:57.083 : en:Chapter 7
00:33:41.833 : en:Chapter 8
00:37:19.625 : en:Chapter 9
00:42:29.041 : en:Chapter 10
00:46:36.666 : en:Chapter 11
00:54:22.791 : en:Chapter 12
01:02:52.000 : en:Chapter 13
01:09:06.333 : en:Chapter 14
01:15:45.375 : en:Chapter 15
01:24:21.250 : en:Chapter 16
01:34:30.791 : en:Chapter 17
01:42:49.375 : en:Chapter 18

Скриншоты

[Профиль] [ЛС]
Показать сообщения:    

Текущее время: Сегодня 14:57

Часовой пояс: GMT



Вы не можете начинать темы
Вы не можете отвечать на сообщения
Вы не можете редактировать свои сообщения
Вы не можете удалять свои сообщения
Вы не можете голосовать в опросах
Вы не можете прикреплять файлы к сообщениям
Вы не можете скачивать файлы