Елена Образцова. Прощай, королева! [2015, Документальный, HDTV 1080i]

 
Автор Сообщение

TorrentFilm ®

Пол:

Стаж: 2 года

Сообщений: 7741



Награды: Нет

Торрент-статистика

Создавать темы 16-Янв-2015 00:00

[Цитировать]

Елена Образцова. Прощай, королева!
Год выпуска: 2015
Страна: Россия
Студия: Первый канал
Жанр: Документальный
Продолжительность: 00:52:02
Перевод: Не требуется
Русские субтитры: нет
Описание: "Когда я молюсь утром и вечером, я всегда прошу: я хочу сначала умереть, а потом закончить петь!" - так Елена Образцова сказала в своем последнем интервью. Она дала его съемочной группе фильма 28 октября 2014 года. В тот вечер в Большом театре состоялся "Оперный бал" в честь 75-летия Елены Образцовой. И впервые на одной сцене звучали лучшие голоса мира – Анна Нетребко, Дмитрий Хворостовский, Мария Гулегина, Хосе Кура. Они прилетели поздравить дорогую Елену Васильевну. А позже за кулисами договорились встретиться здесь же, ровно через год, чтобы отметить ее 76-летие. Сама Образцова только молча улыбалась. О ее смертельной болезни тогда не знал никто, кроме самых близких. Через несколько дней после юбилейного бала Елена Образцова улетела на лечение в Германию. Авторы фильма собирались продолжить съемки в новом, 2015 году, когда закончатся все праздники. И они закончились. Внезапно. В основе фильма - последнее интервью Елены Образцовой, уникальные съёмки и её откровенные монологи, записанные авторами фильма за 10 лет дружбы с певицей.
Авторы: Любовь Камырина, Сергей Майоров
Режиссеры: Николай Бабошкин, Александр Муратов, Артур Петросян
Доп. информация: Релиз -

Рип чистый. Без посторонних надписей. Выкладывается как есть.
Качество: HDTV 1080i
Контейнер: TS
Видео кодек: AVC
Аудио кодек: MP2
Видео: 1920x1080 (16:9) 25.000 fps ~ 9 562 Kbps, 0.184 bit/pixel
Аудио 1: MPEG Audio 48000Hz stereo 192 Кбит/сек 2 channels
Аудио 2: AC3, 6 channels, 48000Hz, 384 Кбит/сек

Скриншоты


Скринлист

MI

GeneralID : 1 (0x1)Complete name : H:\ВЫКЛАДКА\Елена Образцова. Прощай, королева (2015, Документальный, HDTV 1080i) (MYDIMKA).tsFormat : MPEG-TSFile size : 3.88 GiBDuration : 52mn 2sOverall bit rate mode : VariableOverall bit rate : 10.7 Mbps
VideoID : 1603 (0x643)Menu ID : 603 (0x25B)Format : AVCFormat/Info : Advanced Video CodecFormat profile : High@L4.0Format settings, CABAC : YesFormat settings, ReFrames : 3 framesCodec ID : 27Duration : 52mn 2sBit rate : 9 562 KbpsWidth : 1 920 pixelsHeight : 1 080 pixelsDisplay aspect ratio : 16:9Frame rate : 25.000 fpsStandard : ComponentColor space : YUVChroma subsampling : 4:2:0Bit depth : 8 bitsScan type : InterlacedScan order : Top Field FirstBits/(Pixel*Frame) : 0.184Stream size : 3.48 GiB (90%)Color primaries : BT.709Transfer characteristics : BT.709Matrix coefficients : BT.709
Audio #1ID : 2603 (0xA2B)Menu ID : 603 (0x25B)Format : AC-3Format/Info : Audio Coding 3Mode extension : CM (complete main)Format settings, Endianness : BigCodec ID : 6Duration : 52mn 2sBit rate mode : ConstantBit rate : 384 KbpsChannel(s) : 6 channelsChannel positions : Front: L C R, Side: L R, LFESampling rate : 48.0 KHzBit depth : 16 bitsCompression mode : LossyDelay relative to video : -80msStream size : 143 MiB (4%)Language : Russian
Audio #2ID : 2604 (0xA2C)Menu ID : 603 (0x25B)Format : MPEG AudioFormat version : Version 1Format profile : Layer 2Codec ID : 3Duration : 52mn 2sBit rate mode : ConstantBit rate : 192 KbpsChannel(s) : 2 channelsSampling rate : 48.0 KHzCompression mode : LossyDelay relative to video : -80msStream size : 71.5 MiB (2%)Language : Russian
[Профиль] [ЛС]
Показать сообщения:    

Текущее время: Сегодня 02:17

Часовой пояс: GMT



Вы не можете начинать темы
Вы не можете отвечать на сообщения
Вы не можете редактировать свои сообщения
Вы не можете удалять свои сообщения
Вы не можете голосовать в опросах
Вы не можете прикреплять файлы к сообщениям
Вы не можете скачивать файлы